<?xml version="1.0" standalone="no"?>
<!DOCTYPE svg PUBLIC "-//W3C//DTD SVG 1.1//EN" "http://www.w3.org/Graphics/SVG/1.1/DTD/svg11.dtd" >
<svg xmlns="http://www.w3.org/2000/svg" xmlns:xlink="http://www.w3.org/1999/xlink" version="1.1">
<metadata>
Created by FontForge 20170731 at Wed Mar  2 18:57:10 2022
 By Aleksey,,,
Copyright 2019 The Syne Project Authors (https://gitlab.com/bonjour-monde/fonderie/syne-typeface)
</metadata>
<defs>
<font id="Syne-Regular" horiz-adv-x="550" >
  <font-face 
    font-family="Syne"
    font-weight="400"
    font-stretch="normal"
    units-per-em="1000"
    panose-1="0 0 0 0 0 0 0 0 0 0"
    ascent="800"
    descent="-200"
    x-height="500"
    cap-height="650"
    bbox="-150 -240 1016 940"
    underline-thickness="75"
    underline-position="-261"
    unicode-range="U+000D-2215"
  />
<missing-glyph horiz-adv-x="446" 
d="M100 385h246v-246h-246v246z" />
    <glyph glyph-name="f_f" unicode="ff" horiz-adv-x="649" 
d="M422 0v530h80v-530h-80zM592 700h45v-80h-45q-25 1 -45.5 -7t-32.5 -27.5t-12 -55.5h-80q0 60 21.5 97.5t60 55t88.5 17.5zM112 0v510h80v-510h-80zM282 680h46v-80h-46q-25 1 -45.5 -7t-32.5 -27.5t-12 -55.5h-80q0 60 21.5 97.5t60 55t88.5 17.5zM30 500h605v-75h-605
v75z" />
    <glyph glyph-name="f_f_i" unicode="ffi" horiz-adv-x="870" 
d="M454 425l18 75h326v-75h-344zM730 500h80v-500h-80v500zM422 0v530h80v-530h-80zM112 0v510h80v-510h-80zM282 680h46v-80h-46q-25 1 -45.5 -7t-32.5 -27.5t-12 -55.5h-80q0 60 21.5 97.5t60 55t88.5 17.5zM30 500h605v-75h-605v75zM592 700h218v-80h-218q-25 1 -45.5 -7
t-32.5 -27.5t-12 -55.5h-80q0 60 21.5 97.5t60 55t88.5 17.5z" />
    <glyph glyph-name="fi" unicode="fi" horiz-adv-x="559" 
d="M284 405v75h203v-75h-203zM419 480h80v-480h-80v480zM119 0v530h80v-530h-80zM289 700h210v-80h-210q-25 1 -45.5 -7t-32.5 -27.5t-12 -55.5h-80q0 60 21.5 97.5t60 55t88.5 17.5zM30 480h294v-75h-294v75z" />
    <glyph glyph-name=".notdef" horiz-adv-x="446" 
d="M100 385h246v-246h-246v246z" />
    <glyph glyph-name=".null" horiz-adv-x="0" 
 />
    <glyph glyph-name="nonmarkingreturn" horiz-adv-x="333" 
 />
    <glyph glyph-name="CR" unicode="&#xd;" horiz-adv-x="600" 
 />
    <glyph glyph-name="space" unicode=" " horiz-adv-x="210" 
 />
    <glyph glyph-name="exclam" unicode="!" horiz-adv-x="264" 
d="M93 700h78v-499h-78v499zM184 98v-98h-104v98h104z" />
    <glyph glyph-name="quotedbl" unicode="&#x22;" horiz-adv-x="315" 
d="M111 446h-45l-21 127v77h88v-77zM248 446h-45l-21 127v77h88v-77z" />
    <glyph glyph-name="numbersign" unicode="#" horiz-adv-x="690" 
d="M418 630h64v-610h-64v610zM214 630h64v-610h-64v610zM620 246v-66h-550v66h550zM620 470v-66h-550v66h550z" />
    <glyph glyph-name="dollar" unicode="$" horiz-adv-x="452" 
d="M268 701l74 -13l-25 -139l-74 13zM134 -59l24 139l74 -13l-24 -139zM51 226h74q3 -43 32.5 -69.5t86.5 -26.5q33 0 53 8.5t28.5 24t8.5 34.5q0 23 -11.5 36.5t-31 22.5t-44.5 18q-29 10 -59.5 22.5t-57 30t-42.5 43.5t-16 62q0 30 12 56t34.5 45.5t53 30.5t67.5 11
q50 0 84.5 -20t53 -56t19.5 -84h-69q-7 44 -28.5 64.5t-61.5 20.5q-41 0 -63 -18t-22 -48q0 -22 16 -36.5t41.5 -25.5t54.5 -23t56 -24t48 -28.5t33.5 -40t12.5 -58.5q0 -42 -19.5 -74.5t-57 -50.5t-91.5 -18q-60 0 -99.5 19t-61 47.5t-29.5 57t-5 47.5z" />
    <glyph glyph-name="percent" unicode="%" horiz-adv-x="781" 
d="M183 336q-42 0 -74.5 21t-50.5 57.5t-18 83.5q0 72 40 117t103 45q62 0 102.5 -45t40.5 -117q0 -47 -18.5 -83.5t-50.5 -57.5t-74 -21zM183 410q29 0 49 24t20 64q0 41 -20 65t-49 24t-49 -24t-20 -65q0 -40 20 -64t49 -24zM598 -10q-62 0 -102.5 45.5t-40.5 116.5
t40.5 116.5t102.5 45.5q63 0 103 -45.5t40 -116.5t-40 -116.5t-103 -45.5zM598 63q29 0 49 24.5t20 64.5t-20 64t-49 24t-49 -24t-20 -64t20 -64.5t49 -24.5zM551 686l54 -30l-382 -690l-52 32z" />
    <glyph glyph-name="ampersand" unicode="&#x26;" horiz-adv-x="585" 
d="M207 -10q-35 0 -66 12.5t-54.5 34.5t-36.5 52.5t-13 66.5q0 44 17 78t46.5 57.5t67 37t77.5 16.5l3 -5q-38 2 -71 10.5t-58 25.5t-39 43.5t-14 64.5q0 50 24.5 89.5t70.5 63t108 23.5q41 0 74 -11t56 -32t35.5 -52t12.5 -71h-70q0 45 -29 68t-81 23q-58 0 -89.5 -28
t-31.5 -74q0 -32 15.5 -56.5t44 -38t66.5 -13.5h283v-75h-98v-300h-73q-3 34 -4.5 60t-2 54.5t-0.5 69.5l5 -11q-6 -37 -19.5 -70t-35 -58.5t-51.5 -40t-69 -14.5zM233 67q45 0 77 25t49.5 64.5t17.5 81.5v62h-105q-72 0 -113.5 -33.5t-41.5 -89.5q0 -52 30.5 -81t85.5 -29z
" />
    <glyph glyph-name="quotesingle" unicode="'" horiz-adv-x="178" 
d="M111 446h-45l-21 127v77h88v-77z" />
    <glyph glyph-name="parenleft" unicode="(" horiz-adv-x="305" 
d="M255 -87l-66 -46l-14 18t-34.5 53t-41.5 85.5t-35 116.5t-14 146t14 146t35 116.5t41.5 85.5t34.5 53l14 18l66 -46l-19 -24.5t-43.5 -72t-43.5 -117t-19 -159.5q0 -72 12.5 -131t31.5 -104t37.5 -76t31 -46.5z" />
    <glyph glyph-name="parenright" unicode=")" horiz-adv-x="305" 
d="M50 -87l12.5 15.5t31.5 46.5t37.5 76t31 104t12.5 131q0 90 -19 159.5t-43.5 117t-43.5 72l-19 24.5l66 46l14 -18t35 -53t41.5 -85.5t34.5 -116.5t14 -146t-14 -146t-35 -116.5t-41.5 -85.5t-34.5 -53l-14 -18z" />
    <glyph glyph-name="asterisk" unicode="*" horiz-adv-x="430" 
d="M358 628l22 -67l-104 -34l71 -99l-57 -42l-75 104l-76 -104l-57 42l70 97l-102 34l22 67l108 -35v119h70v-117z" />
    <glyph glyph-name="plus" unicode="+" horiz-adv-x="460" 
d="M50 305h360v-70h-360v70zM265 450v-360h-70v360h70z" />
    <glyph glyph-name="comma" unicode="," horiz-adv-x="198" 
d="M74 -142l-21 22q16 28 28 55.5t13 53.5l-49 11v97h108v-70q0 -61 -24.5 -100t-54.5 -69z" />
    <glyph glyph-name="hyphen" unicode="-" horiz-adv-x="450" 
d="M80 307h290v-74h-290v74z" />
    <glyph glyph-name="period" unicode="." horiz-adv-x="234" 
d="M169 98v-98h-104v98h104z" />
    <glyph glyph-name="slash" unicode="/" horiz-adv-x="417" 
d="M316 722l71 -25l-287 -788l-70 26z" />
    <glyph glyph-name="zero" unicode="0" horiz-adv-x="588" 
d="M295 -10q-64 0 -120 31t-90.5 89.5t-34.5 138.5t34.5 138.5t90.5 90.5t120 32t119.5 -32t89.5 -90.5t34 -138.5t-34 -138.5t-89.5 -89.5t-119.5 -31zM295 67q41 0 78 21t61 62t24 99t-23.5 99t-61 63t-78.5 22t-79 -21.5t-62 -62.5t-24 -100q0 -58 24 -99t62 -62t79 -21z
" />
    <glyph glyph-name="one" unicode="1" horiz-adv-x="322" 
d="M25 425v75h197v-500h-80v425h-117z" />
    <glyph glyph-name="two" unicode="2" horiz-adv-x="453" 
d="M260 151l-134 -97l-7 21h294v-75h-370v75q65 49 115.5 83t85.5 61t53.5 55t18.5 65q0 28 -11 49.5t-33.5 34t-58.5 12.5q-44 0 -76 -28t-32 -73h-70q-5 50 18.5 89.5t66 63t93.5 23.5q44 0 78 -13.5t57.5 -36.5t35.5 -53t12 -63q0 -30 -9.5 -55t-27 -48t-42.5 -45
t-57 -45z" />
    <glyph glyph-name="three" unicode="3" horiz-adv-x="455" 
d="M241 190l1 5q38 -3 70 -13t56 -29.5t37 -50.5t13 -75q0 -51 -24 -93.5t-67.5 -68t-101.5 -25.5q-54 0 -98.5 25.5t-69 68t-19.5 93.5h70q0 -32 14 -57.5t40 -40.5t63 -15q52 0 82.5 32t30.5 85t-33.5 86t-91.5 33h-57v74h57q38 0 64 13.5t39 38.5t13 57q0 45 -26.5 73.5
t-79.5 28.5q-44 0 -75 -28.5t-31 -73.5h-70q-4 37 8.5 69t37.5 56.5t58.5 38t71.5 13.5q56 0 98 -23.5t65 -63.5t23 -90q0 -41 -12.5 -68.5t-35 -43.5t-53.5 -23t-67 -8z" />
    <glyph glyph-name="four" unicode="4" horiz-adv-x="537" 
d="M400 505v-650h-80v551l19 -6l-225 -355l-17 30h239v-75h-291v75l275 430h80zM384 0v75h108v-75h-108z" />
    <glyph glyph-name="five" unicode="5" horiz-adv-x="534" 
d="M292 270q44 0 80 -15t62 -43.5t40.5 -68t14.5 -89.5q0 -66 -28.5 -114t-76 -74t-104.5 -26q-43 0 -82 13.5t-68.5 39t-48 62t-21.5 82.5h80q4 -38 21.5 -65t47.5 -40.5t71 -13.5q26 0 49.5 9t41.5 26t28.5 42.5t10.5 58.5t-9.5 58.5t-26 43t-39.5 27t-50 9.5
q-25 0 -50 -7t-46 -25t-36 -51l-74 15l20 376h339v-75h-263l-17 -282l-7 7q10 43 31.5 69t50 38.5t59.5 12.5z" />
    <glyph glyph-name="six" unicode="6" horiz-adv-x="503" 
d="M271 420q54 0 98.5 -26.5t71 -75t25.5 -114.5t-30.5 -114t-78 -74t-107.5 -26q-58 0 -106.5 26t-76.5 73.5t-27 113.5q1 23 6 50t18 58q2 6 12 27t24.5 52t31 66t32.5 69.5t29.5 62.5t21.5 45l8 17h86l-202 -406l-29 -26q22 45 43 82.5t43.5 64t48.5 41t58 14.5zM250 67
q54 0 94.5 35.5t41.5 102.5q1 65 -37 101.5t-93 36.5q-61 0 -98 -40.5t-38 -98.5q-1 -66 37.5 -101.5t92.5 -35.5z" />
    <glyph glyph-name="seven" unicode="7" horiz-adv-x="451" 
d="M45 425v75h381v-75l-265 -575h-85l287 608l21 -33h-339z" />
    <glyph glyph-name="eight" unicode="8" horiz-adv-x="490" 
d="M245 329q-51 0 -93.5 16t-67.5 50.5t-25 88.5q0 50 23 89.5t65 63t98 23.5q57 0 98.5 -23.5t64.5 -63t23 -89.5q0 -54 -25 -88.5t-67 -50.5t-94 -16zM245 379q33 0 56.5 14t36.5 37.5t13 53.5t-13 53t-36.5 35.5t-56.5 12.5q-32 0 -56 -12.5t-37 -35.5t-13 -53t13 -53.5
t37 -37.5t56 -14zM245 -10q-66 0 -113 25.5t-72 68t-25 94.5q0 59 28 98.5t76 59t106 19.5q59 0 106.5 -19.5t75.5 -59t28 -98.5q0 -52 -25 -94.5t-71.5 -68t-113.5 -25.5zM245 65q43 0 72 14.5t43.5 40.5t14.5 58q0 35 -14.5 61.5t-43.5 41.5t-72 15t-72 -15t-43.5 -41.5
t-14.5 -61.5q0 -32 14.5 -58t43.5 -40.5t72 -14.5z" />
    <glyph glyph-name="nine" unicode="9" horiz-adv-x="493" 
d="M232 80q-51 0 -96 26.5t-72.5 75.5t-26.5 115t30.5 113.5t78.5 73.5t107 26q59 0 107 -26t76 -73.5t27 -113.5q-1 -23 -6 -49.5t-18 -58.5q-2 -6 -12 -27t-24.5 -52t-31 -66t-32.5 -69.5t-29.5 -62.5t-21.5 -45l-8 -17h-86l202 406l29 26q-22 -45 -43 -82.5t-43.5 -64
t-48.5 -41t-58 -14.5zM253 433q-54 0 -94 -35.5t-42 -102.5q-1 -64 37 -101t93 -37q62 0 98.5 41t37.5 99q1 44 -17 74t-47.5 46t-65.5 16z" />
    <glyph glyph-name="colon" unicode=":" horiz-adv-x="274" 
d="M179 98v-98h-104v98h104zM179 487v-98h-104v98h104z" />
    <glyph glyph-name="semicolon" unicode=";" horiz-adv-x="238" 
d="M171 486v-98h-104v98h104zM94 -142l-21 22q16 28 28 55.5t13 53.5l-49 11v97h108v-70q0 -61 -24.5 -100t-54.5 -69z" />
    <glyph glyph-name="less" unicode="&#x3c;" horiz-adv-x="532" 
d="M392 522l40 -68l-283 -163l283 -163l-40 -69l-322 186v91z" />
    <glyph glyph-name="equal" unicode="=" horiz-adv-x="470" 
d="M50 405h370v-75h-370v75zM50 225h370v-75h-370v75z" />
    <glyph glyph-name="greater" unicode="&#x3e;" horiz-adv-x="532" 
d="M100 454l40 68l322 -186v-91l-322 -186l-40 69l283 163z" />
    <glyph glyph-name="question" unicode="?" horiz-adv-x="526" 
d="M203 201v173h24q80 0 119.5 35.5t39.5 98.5q0 59 -35 93t-89 34q-35 0 -63 -15t-43.5 -42t-15.5 -64h-80q0 33 9.5 62.5t28 54t44 42t57 27.5t68.5 10q46 0 82.5 -15t62.5 -42.5t40 -64t14 -79.5q0 -60 -24 -102t-65.5 -66t-93.5 -30v-110h-80zM191 0v98h103v-98h-103z
" />
    <glyph glyph-name="at" unicode="@" horiz-adv-x="880" 
d="M448 -40q-116 0 -203.5 44.5t-136 126t-48.5 192.5q0 112 48.5 191.5t135.5 122.5t204 43t201.5 -42.5t130 -120t45.5 -184.5q0 -44 -13 -81t-41 -59t-75 -22q-31 0 -54.5 9t-39.5 24.5t-24 33.5t-8 36v223h80v-174q0 -25 4.5 -43.5t16 -28.5t31.5 -10q21 0 32 10.5
t15 31t4 50.5q0 65 -20.5 116t-59.5 86.5t-96 54t-129 18.5q-73 0 -131 -18.5t-99.5 -55t-63.5 -89.5t-22 -122q0 -91 39 -156.5t110 -100t167 -34.5q42 0 78 5.5t66.5 16t55.5 25.5l33 -63q-30 -18 -66 -30.5t-77.5 -19t-89.5 -6.5zM414 117q-56 0 -98.5 26.5t-65.5 72
t-23 100.5q0 60 23.5 107.5t68 75.5t105.5 28q58 0 92 -29.5t49 -77.5t15 -104q0 -23 -9 -56.5t-28.5 -66t-51 -54.5t-77.5 -22zM434 194q33 0 58.5 10.5t42.5 28t26 39.5t9 44q0 30 -9 54.5t-26.5 42t-43 27t-57.5 9.5q-69 0 -98 -37.5t-29 -95.5q0 -50 32.5 -86t94.5 -36z
" />
    <glyph glyph-name="A" unicode="A" horiz-adv-x="620" 
d="M152 170v75h312v-75h-312zM20 0l247 650h84l249 -650h-86l-217 588h24l-217 -588h-84z" />
    <glyph glyph-name="B" unicode="B" horiz-adv-x="616" 
d="M80 0v650h256q101 0 157.5 -46t56.5 -128q0 -51 -20.5 -83t-57.5 -48t-87 -21l2 6q37 -2 70 -9.5t58.5 -23.5t40.5 -44t15 -72q0 -59 -26 -98t-72.5 -59.5t-106.5 -23.5h-286zM160 75h186q68 0 106.5 25.5t38.5 80.5q0 44 -24.5 66t-62.5 29.5t-78 7.5h-166v-209z
M160 359h166q68 0 106.5 29.5t38.5 84.5q0 54 -38.5 78t-96.5 24h-176v-216z" />
    <glyph glyph-name="C" unicode="C" horiz-adv-x="690" 
d="M639 217q-10 -70 -48 -121t-96.5 -78.5t-130.5 -27.5q-67 0 -124 23.5t-99.5 67.5t-66.5 106t-24 138q0 77 24 138.5t66.5 105.5t99.5 67.5t124 23.5q73 0 131.5 -27.5t96.5 -79t48 -122.5h-74q-14 50 -43.5 84t-70.5 52t-88 18q-61 0 -114.5 -30t-86.5 -88t-33 -142
t33 -142t86.5 -88t114.5 -30q47 0 87.5 17.5t70 51.5t43.5 83h74z" />
    <glyph glyph-name="D" unicode="D" horiz-adv-x="688" 
d="M291 650q98 0 164.5 -25.5t106.5 -70.5t58 -103t18 -123t-19 -124t-60.5 -105t-107.5 -72.5t-160 -26.5h-211v650h211zM160 75h131q79 0 130.5 22t81.5 58.5t42.5 81.5t12.5 91t-12.5 90t-42.5 79.5t-81.5 56.5t-130.5 21h-131v-500z" />
    <glyph glyph-name="E" unicode="E" horiz-adv-x="601" 
d="M160 286v-211h381v-75h-461v650h460v-75h-380v-214h311v-75h-311z" />
    <glyph glyph-name="F" unicode="F" horiz-adv-x="565" 
d="M540 650v-75h-380v-214h311v-75h-311v-286h-80v650h460z" />
    <glyph glyph-name="G" unicode="G" horiz-adv-x="721" 
d="M356 -10q-71 0 -127.5 24t-96.5 67.5t-61 104.5t-21 134q0 74 23 136.5t65 108t99.5 70.5t126.5 25q75 0 133 -28.5t94 -80t43 -120.5h-68q-13 48 -42 82.5t-69.5 53t-90.5 18.5q-69 0 -121.5 -34.5t-82.5 -94.5t-30 -136t27 -133.5t78 -89.5t121 -32q54 0 94.5 21
t65.5 61.5t34 99.5h49q-16 -129 -81 -193t-162 -64zM583 0q0 33 1.5 74.5t4.5 84.5t5 77h-220v75h287v-311h-78z" />
    <glyph glyph-name="H" unicode="H" horiz-adv-x="720" 
d="M153 362h412v-75h-412v75zM560 650h80v-650h-80v650zM80 650h80v-650h-80v650z" />
    <glyph glyph-name="I" unicode="I" horiz-adv-x="280" 
d="M100 650h80v-650h-80v650z" />
    <glyph glyph-name="J" unicode="J" horiz-adv-x="537" 
d="M377 219v431h80v-431q0 -49 -14 -91t-41.5 -73t-67.5 -48t-92 -17q-45 0 -84 13.5t-68 39t-46.5 62.5t-19.5 83h73q10 -61 49 -92t96 -31q47 0 76.5 20t44 54.5t14.5 79.5z" />
    <glyph glyph-name="K" unicode="K" horiz-adv-x="631" 
d="M235 316v52l376 -368h-109l-342 340l301 310h108zM80 650h80v-650h-80v650z" />
    <glyph glyph-name="L" unicode="L" horiz-adv-x="570" 
d="M160 650v-575h360v-75h-440v650h80z" />
    <glyph glyph-name="M" unicode="M" horiz-adv-x="880" 
d="M456 48h-32l296 602h80v-650h-80v511l16 -4l-256 -507h-80l-256 506l16 4v-510h-80v650h80z" />
    <glyph glyph-name="N" unicode="N" horiz-adv-x="720" 
d="M582 95l-22 -7v562h80v-650h-80l-422 554l22 7v-561h-80v650h80z" />
    <glyph glyph-name="O" unicode="O" horiz-adv-x="740" 
d="M370 -10q-89 0 -161.5 41.5t-115.5 116.5t-43 177t43 177.5t115.5 116.5t161.5 41t161.5 -41t115.5 -116.5t43 -177.5t-43 -177t-115.5 -116.5t-161.5 -41.5zM370 65q68 0 122 29.5t86 87.5t32 143t-32 142.5t-86 87.5t-122 30q-67 0 -121.5 -30t-86.5 -87.5t-32 -142.5
t32 -143t86.5 -87.5t121.5 -29.5z" />
    <glyph glyph-name="P" unicode="P" horiz-adv-x="606" 
d="M142 230v75h204q60 0 97.5 37.5t37.5 97.5q0 62 -37.5 98.5t-97.5 36.5h-188v-575h-80v650h268q45 0 84 -14t68.5 -41t46 -66t16.5 -89t-16.5 -89t-46 -66t-68.5 -41t-84 -14h-204z" />
    <glyph glyph-name="Q" unicode="Q" horiz-adv-x="740" 
d="M330 43h80v-243h-80v243zM370 -10q-89 0 -161.5 41.5t-115.5 116.5t-43 177t43 177.5t115.5 116.5t161.5 41t161.5 -41t115.5 -116.5t43 -177.5t-43 -177t-115.5 -116.5t-161.5 -41.5zM370 65q68 0 122 29.5t86 87.5t32 143t-32 142.5t-86 87.5t-122 30q-67 0 -121.5 -30
t-86.5 -87.5t-32 -142.5t32 -143t86.5 -87.5t121.5 -29.5z" />
    <glyph glyph-name="R" unicode="R" horiz-adv-x="642" 
d="M80 0v650h287q68 0 116 -20.5t73.5 -61.5t25.5 -103q0 -42 -13.5 -72t-37.5 -50.5t-56.5 -31.5t-70.5 -14l-3 5q53 -2 91 -13t59 -40t21 -87v-162h-80v162q0 40 -13.5 62.5t-45 32t-86.5 9.5h-187v-266h-80zM160 341h207q68 0 101.5 34.5t33.5 89.5q0 53 -33.5 81.5
t-101.5 28.5h-207v-234z" />
    <glyph glyph-name="S" unicode="S" horiz-adv-x="541" 
d="M36 211h72q3 -42 25 -75t60.5 -52t90.5 -19q45 0 75.5 13.5t46 37.5t15.5 56q0 33 -16 53t-46 34t-71 27q-39 12 -79 28t-74.5 39t-55.5 55.5t-21 78.5q0 45 24.5 84.5t72 64t114.5 24.5q105 0 157 -57t50 -151h-72q-2 71 -40 102t-99 31q-51 0 -89 -23.5t-38 -73.5
q0 -22 8.5 -38.5t28 -30.5t53 -27.5t82.5 -29.5q32 -10 65.5 -24t62 -35t46 -53.5t17.5 -81.5q0 -47 -22.5 -87.5t-70 -65.5t-122.5 -25q-64 0 -109.5 17.5t-74.5 45.5t-44.5 58.5t-20.5 57.5t-1 42z" />
    <glyph glyph-name="T" unicode="T" 
d="M15 650h520v-75h-520v75zM235 583h80v-583h-80v583z" />
    <glyph glyph-name="U" unicode="U" horiz-adv-x="695" 
d="M535 250v400h80v-400q0 -55 -13 -97.5t-36.5 -73.5t-56.5 -50.5t-73.5 -29t-86.5 -9.5q-47 0 -88 9.5t-74.5 29t-57 50.5t-36.5 73.5t-13 97.5v400h80v-400q0 -75 26 -115t69 -55t94 -15q50 0 92 15t68 55t26 115z" />
    <glyph glyph-name="V" unicode="V" horiz-adv-x="600" 
d="M259 0l-239 650h86l207 -570h-24l207 570h84l-237 -650h-84z" />
    <glyph glyph-name="W" unicode="W" horiz-adv-x="1036" 
d="M254 0l-234 650h86l201 -564h-24l193 564h86l193 -564h-24l201 564h84l-232 -650h-84l-192 584h22l-192 -584h-84z" />
    <glyph glyph-name="X" unicode="X" horiz-adv-x="616" 
d="M483 650h90l-240 -346l-2 -3l-198 -301h-90l244 366l2 2zM143 650l186 -281l1 -2l243 -367h-100l-189 303l-2 2l-229 345h90z" />
    <glyph glyph-name="Y" unicode="Y" horiz-adv-x="590" 
d="M565 650l-230 -427v-223h-80v223l-230 427h90l198 -375h-32l194 375h90z" />
    <glyph glyph-name="Z" unicode="Z" horiz-adv-x="650" 
d="M60 650h530v-75l-450 -527l-13 27h463v-75h-530v75l452 527l13 -27h-465v75z" />
    <glyph glyph-name="bracketleft" unicode="[" horiz-adv-x="343" 
d="M285 -98v-80h-197v978h197v-80h-117v-818h117z" />
    <glyph glyph-name="backslash" unicode="\" horiz-adv-x="417" 
d="M100 722l287 -787l-71 -26l-286 788z" />
    <glyph glyph-name="bracketright" unicode="]" horiz-adv-x="347" 
d="M60 -97h117v817h-117v80h197v-977h-197v80z" />
    <glyph glyph-name="asciicircum" unicode="^" horiz-adv-x="587" 
d="M346 601v-98h-104v98h104z" />
    <glyph glyph-name="underscore" unicode="_" horiz-adv-x="790" 
d="M80 -123h630v-77h-630v77z" />
    <glyph glyph-name="grave" unicode="`" horiz-adv-x="411" 
d="M240 601l-140 161h105l106 -161h-71z" />
    <glyph glyph-name="a" unicode="a" horiz-adv-x="569" 
d="M254 -10q-59 0 -108.5 33.5t-79 92t-29.5 133.5t30 134t81.5 93t115.5 34q70 0 106.5 -35.5t50 -94.5t13.5 -131q0 -38 -8 -82.5t-27.5 -85t-54.5 -66t-90 -25.5zM274 66q51 0 84.5 25t49.5 66.5t16 91.5q0 55 -16.5 96.5t-50 65t-83.5 23.5q-75 0 -116 -52.5t-41 -132.5
q0 -53 20.5 -94.5t56 -65t80.5 -23.5zM424 500h80v-500h-73l-1.5 18l-3.5 42t-2 40v400z" />
    <glyph glyph-name="b" unicode="b" horiz-adv-x="584" 
d="M330 -10q-55 0 -90 25.5t-54.5 66t-27.5 85t-8 82.5q0 54 7.5 101t26.5 83t54.5 56.5t91.5 20.5q63 0 112 -34t77 -93t28 -134t-29 -133.5t-78 -92t-110 -33.5zM310 66q46 0 81 23.5t55.5 65t20.5 94.5q0 80 -41 132.5t-116 52.5q-50 0 -83.5 -23.5t-50 -65t-16.5 -96.5
q0 -50 16.5 -91.5t49.5 -66.5t84 -25zM160 700v-600q0 -18 -2.5 -48t-4.5 -52h-73v700h80z" />
    <glyph glyph-name="c" unicode="c" horiz-adv-x="546" 
d="M509 188q-7 -62 -39.5 -106.5t-81.5 -68t-106 -23.5q-64 0 -120 31t-90.5 89.5t-34.5 138.5t34.5 138.5t90.5 90.5t120 32q57 0 105.5 -24t81 -68t40.5 -105h-73q-17 57 -59 89.5t-95 32.5q-43 0 -81 -22t-61 -63.5t-23 -100.5q0 -58 23 -99.5t60.5 -63t81.5 -21.5
q61 0 99.5 32.5t55.5 90.5h72z" />
    <glyph glyph-name="d" unicode="d" horiz-adv-x="584" 
d="M254 -10q-60 0 -109.5 33.5t-78.5 92t-29 133.5t28 134t77 93t112 34q56 0 91.5 -20.5t54.5 -56.5t26.5 -83t7.5 -101q0 -38 -8 -82.5t-27.5 -85t-54.5 -66t-90 -25.5zM274 66q51 0 84.5 25t49.5 66.5t16 91.5q0 55 -16.5 96.5t-50 65t-83.5 23.5q-75 0 -116 -52.5
t-41 -132.5q0 -53 20.5 -94.5t56 -65t80.5 -23.5zM424 700h80v-700h-73q-2 22 -4.5 52t-2.5 48v600z" />
    <glyph glyph-name="e" unicode="e" horiz-adv-x="535" 
d="M419 161h75q-8 -49 -35.5 -87.5t-72 -61t-102.5 -22.5q-70 0 -126 33.5t-88.5 92t-32.5 133.5t31.5 134t86.5 93t124 34q73 0 123.5 -32.5t75 -95t19.5 -153.5h-380q5 -49 27 -86t58 -57.5t82 -20.5q51 0 86.5 26.5t48.5 69.5zM282 435q-62 0 -104 -36t-56 -98h293
q-4 66 -42.5 100t-90.5 34z" />
    <glyph glyph-name="f" unicode="f" horiz-adv-x="347" 
d="M30 500h294v-75h-294v75zM289 700h46v-80h-46q-25 1 -45.5 -7t-32.5 -27.5t-12 -55.5v-530h-80v530q0 60 21.5 97.5t60 55t88.5 17.5z" />
    <glyph glyph-name="g" unicode="g" horiz-adv-x="538" 
d="M244 79q-53 0 -100.5 25.5t-77 73.5t-29.5 115t29 115.5t76 75t102 26.5q17 0 32.5 -2.5t29.5 -7.5h203v-86q-43 0 -85.5 16t-72.5 33l-4 4q35 -19 57.5 -45t34 -58.5t11.5 -70.5q0 -67 -28.5 -115t-75.5 -73.5t-102 -25.5zM391 -200v22q0 53 -27.5 77t-82.5 24h-100
q-33 0 -57.5 5.5t-40.5 16.5t-24 27t-8 36q0 38 23 57.5t57 24.5t65 0l48 -11q-54 -3 -83.5 -11t-29.5 -34q0 -15 11.5 -24.5t34.5 -9.5h104q52 0 95 -14.5t69 -49t26 -94.5v-42h-80zM244 154q33 0 61.5 16t46.5 47t18 76t-17.5 76.5t-46.5 48t-62 16.5t-62 -16.5t-47 -47.5
t-18 -77q0 -45 18 -76t47 -47t62 -16z" />
    <glyph glyph-name="h" unicode="h" horiz-adv-x="566" 
d="M421 0v314q0 39 -12 64.5t-36 38.5t-60 13q-41 0 -76 -21t-57.5 -57.5t-27.5 -84.5l-1 58q5 42 20.5 76t39 58.5t54 37.5t64.5 13q40 0 72 -12t54 -35t34 -55.5t12 -73.5v-334h-80zM77 0v700h80v-700h-80z" />
    <glyph glyph-name="i" unicode="i" horiz-adv-x="224" 
d="M164 700v-97h-104v97h104zM72 500h80v-500h-80v500z" />
    <glyph glyph-name="j" unicode="j" horiz-adv-x="224" 
d="M73 500h80v-700h-80v700zM164 700v-97h-104v97h104z" />
    <glyph glyph-name="k" unicode="k" horiz-adv-x="518" 
d="M77 700h80v-700h-80v700zM491 500l-250 -247l2 52l265 -305h-102l-247 279l218 221h114z" />
    <glyph glyph-name="l" unicode="l" horiz-adv-x="230" 
d="M75 700h80v-700h-80v700z" />
    <glyph glyph-name="m" unicode="m" horiz-adv-x="890" 
d="M65 500h80v-500h-80v500zM317 510q40 0 72 -12t54 -35t34 -55.5t12 -73.5v-334h-80v314q0 58 -27 87t-81 29q-41 0 -76 -21t-57.5 -57.5t-27.5 -84.5l-1 58q5 42 20.5 76t39 58.5t54 37.5t64.5 13zM653 510q40 0 72 -12t54 -35t34 -55.5t12 -73.5v-334h-80v314
q0 58 -27 87t-81 29q-41 0 -76 -21t-57.5 -57.5t-27.5 -84.5l-1 58q5 42 20.5 76t39 58.5t54 37.5t64.5 13z" />
    <glyph glyph-name="n" unicode="n" horiz-adv-x="554" 
d="M65 500h80v-500h-80v500zM317 510q40 0 72 -12t54 -35t34 -55.5t12 -73.5v-334h-80v314q0 58 -27 87t-81 29q-41 0 -76 -21t-57.5 -57.5t-27.5 -84.5l-1 58q5 42 20.5 76t39 58.5t54 37.5t64.5 13z" />
    <glyph glyph-name="o" unicode="o" horiz-adv-x="562" 
d="M282 -10q-64 0 -120 31t-90.5 89.5t-34.5 138.5t34.5 138.5t90.5 90.5t120 32t119.5 -32t89.5 -90.5t34 -138.5t-34 -138.5t-89.5 -89.5t-119.5 -31zM282 65q42 0 79 21t60.5 62.5t23.5 100.5t-23.5 100.5t-60.5 63.5t-79 22t-79.5 -21.5t-61.5 -63t-24 -101.5
q0 -59 23.5 -100.5t61.5 -62.5t80 -21z" />
    <glyph glyph-name="p" unicode="p" horiz-adv-x="569" 
d="M315 -10q-55 0 -90 25.5t-54.5 66t-27.5 85t-8 82.5q0 54 7.5 101t26.5 83t54.5 56.5t91.5 20.5q60 0 109 -34t78.5 -93t29.5 -134t-30 -133.5t-79.5 -92t-107.5 -33.5zM295 66q46 0 81.5 23.5t55.5 65t20 94.5q0 80 -41 132.5t-116 52.5q-44 0 -78 -23.5t-53 -65
t-19 -96.5q0 -50 16.5 -91.5t49.5 -66.5t84 -25zM65 500h77l3 -105v-595h-80v700z" />
    <glyph glyph-name="q" unicode="q" horiz-adv-x="584" 
d="M254 -10q-59 0 -108.5 33.5t-79 92t-29.5 133.5t29.5 134t79 93t108.5 34q56 0 91.5 -20.5t54.5 -56.5t26.5 -83t7.5 -101q0 -38 -8 -82.5t-27.5 -85t-54.5 -66t-90 -25.5zM274 66q51 0 84.5 25t49.5 66.5t16 91.5q0 55 -16.5 96.5t-50 65t-83.5 23.5q-75 0 -116 -52.5
t-41 -132.5q0 -53 20.5 -94.5t56 -65t80.5 -23.5zM504 500v-700h-80v607v93h80z" />
    <glyph glyph-name="r" unicode="r" horiz-adv-x="330" 
d="M65 500h80v-500h-80v500zM305 425q-51 0 -85.5 -25.5t-54 -62t-25.5 -70.5l-1 58q0 9 4 30t15 47.5t29.5 51t47.5 40.5t70 16v-85z" />
    <glyph glyph-name="s" unicode="s" horiz-adv-x="441" 
d="M41 161h74q3 -43 32.5 -70t85.5 -27q34 0 53.5 9t28.5 24.5t9 34.5q0 23 -11.5 36.5t-31 22.5t-44.5 17q-29 11 -59.5 23.5t-57 30t-42.5 43t-16 61.5q0 30 12 56.5t34.5 46t53 30.5t67.5 11q50 0 84.5 -20t53 -56.5t19.5 -84.5h-69q-7 45 -28.5 65.5t-61.5 20.5
q-41 0 -63 -18t-22 -48q0 -22 16 -36.5t41.5 -26t54.5 -23.5t56 -24t48 -28t33.5 -39.5t12.5 -58.5q0 -42 -19.5 -74.5t-57 -50.5t-91.5 -18q-49 0 -83.5 12.5t-57.5 33t-35.5 43.5t-16.5 45t-2 37z" />
    <glyph glyph-name="t" unicode="t" horiz-adv-x="354" 
d="M30 500h294v-75h-294v75zM137 630h80v-630h-80v630z" />
    <glyph glyph-name="u" unicode="u" horiz-adv-x="554" 
d="M489 0h-80v500h80v-500zM414 233l1 -28q-1 -12 -5.5 -37t-15 -55.5t-30 -58.5t-50 -46t-75.5 -18q-29 0 -59.5 8.5t-56.5 28t-42 54.5t-16 87v332h80v-312q0 -45 14.5 -70.5t39.5 -36.5t56 -11q51 0 85 26t52 64t22 73z" />
    <glyph glyph-name="v" unicode="v" horiz-adv-x="494" 
d="M258 69h-24l153 431h87l-190 -500h-75l-189 500h87z" />
    <glyph glyph-name="w" unicode="w" horiz-adv-x="771" 
d="M567 73l-20 1l117 426h87l-153 -500h-75l-148 438h20l-148 -438h-75l-152 500h87l115 -426l-20 -1l135 427h97z" />
    <glyph glyph-name="x" unicode="x" horiz-adv-x="510" 
d="M475 500l-194 -272l-159 -228h-97l207 287l146 213h97zM25 500h100l155 -215l205 -285h-97l-162 228z" />
    <glyph glyph-name="y" unicode="y" horiz-adv-x="505" 
d="M20 500h86l179 -480l-70 -20zM485 500l-279 -700h-87l121 270l160 430h85z" />
    <glyph glyph-name="z" unicode="z" horiz-adv-x="498" 
d="M440 425l-308 -378l-13 28h324v-75h-388v75l313 378l13 -28h-326v75h385v-75z" />
    <glyph glyph-name="braceleft" unicode="{" horiz-adv-x="419" 
d="M118 800h213v-80h-124q0 -31 10 -65.5t23 -69.5t23 -69t10 -65q0 -42 -17.5 -72t-51 -48t-80.5 -26v12q47 -7 80.5 -25.5t51 -48t17.5 -72.5q0 -31 -10 -65t-23 -69t-23 -69t-10 -66h124v-80h-213q-8 47 2 97t27.5 98t31.5 88t14 66q0 44 -33.5 72t-101.5 28v80
q68 0 101.5 28t33.5 72q0 26 -14 66t-31.5 88t-27.5 98.5t-2 96.5z" />
    <glyph glyph-name="bar" unicode="|" horiz-adv-x="270" 
d="M100 800h70v-960h-70v960z" />
    <glyph glyph-name="braceright" unicode="}" horiz-adv-x="419" 
d="M226 451q0 -44 34 -72t101 -28v-80q-67 0 -101 -28t-34 -72q0 -26 14.5 -66t31.5 -88t27 -98t2 -97h-213v80h124q0 32 -10 66t-23 69t-23 69t-10 65q0 43 17.5 72.5t51 48t80.5 25.5v-12q-47 8 -80.5 26t-51 48t-17.5 72q0 31 10 65t23 69t23 69.5t10 65.5h-124v80h213
q8 -46 -2 -96.5t-27 -98.5t-31.5 -88t-14.5 -66z" />
    <glyph glyph-name="asciitilde" unicode="~" horiz-adv-x="264" 
d="M184 322v-98h-104v98h104z" />
    <glyph glyph-name="uni00A0" unicode="&#xa0;" horiz-adv-x="210" 
 />
    <glyph glyph-name="exclamdown" unicode="&#xa1;" horiz-adv-x="264" 
d="M93 -119v499h78v-499h-78zM184 483h-104v98h104v-98z" />
    <glyph glyph-name="cent" unicode="&#xa2;" horiz-adv-x="546" 
d="M437 188h72q-7 -62 -39.5 -106.5t-81.5 -68t-106 -23.5h-10t-10 1l-15 -87l-74 13l16 91q-65 26 -108.5 88t-43.5 153q0 79 33.5 137.5t88.5 90.5t118 33l18 100l74 -13l-17 -97q61 -18 104 -66.5t53 -120.5h-73q-13 41 -38 69.5t-59 41.5l-64 -359h7q61 0 99.5 32.5
t55.5 90.5zM117 249q0 -59 24 -101t62 -63l61 349q-39 -4 -72.5 -27.5t-54 -63t-20.5 -94.5z" />
    <glyph glyph-name="sterling" unicode="&#xa3;" horiz-adv-x="464" 
d="M34 262v60h300v-60h-300zM228 201q0 -28 -9.5 -50t-22.5 -37.5t-26 -25t-20 -13.5h265v-75h-350v75l8.5 5t21.5 15t25.5 25t21 35.5t8.5 45.5q0 21 -6.5 41.5t-17.5 41.5q-1 3 -2.5 5.5l-3 5t-2.5 5t-3 5.5q-10 20 -21 41.5t-20.5 44t-15 46t-5.5 47.5q0 55 24.5 94
t66.5 60.5t95 21.5q42 0 76 -13.5t58.5 -37.5t37.5 -56t13 -69h-80q0 30 -14 53t-38 35.5t-53 12.5q-27 0 -51 -10.5t-39.5 -33t-15.5 -57.5q0 -40 14.5 -75.5t33 -68.5t33 -67t14.5 -72z" />
    <glyph glyph-name="currency" unicode="&#xa4;" horiz-adv-x="560" 
d="M280 126q-51 0 -92.5 25t-66.5 66.5t-25 92.5t25 92.5t67 66.5t92 25q51 0 92.5 -25t66.5 -66.5t25 -92.5t-25 -92.5t-66.5 -66.5t-92.5 -25zM280 198q47 0 79.5 33t32.5 79q0 47 -32.5 79.5t-79.5 32.5q-46 0 -79 -32.5t-33 -79.5q0 -46 33 -79t79 -33zM99 80l-49 50
l98 98l52 -47zM460 80l-101 101l55 44l96 -95zM152 388l-102 102l49 50l102 -102zM405 386l-48 50l103 104l50 -50z" />
    <glyph glyph-name="yen" unicode="&#xa5;" horiz-adv-x="590" 
d="M255 223l-230 427h90l198 -375h-32l194 375h90l-230 -427h-80zM255 0v114h80v-114h-80zM145 148h300v-70h-300v70zM145 258h300v-70h-300v70z" />
    <glyph glyph-name="brokenbar" unicode="&#xa6;" horiz-adv-x="270" 
d="M170 185v-345h-70v345h70zM170 800v-345h-70v345h70z" />
    <glyph glyph-name="section" unicode="&#xa7;" horiz-adv-x="431" 
d="M249 232l32 5q56 -25 83 -54t27 -78q0 -63 -43.5 -102t-111.5 -39q-61 0 -101 20.5t-62.5 50t-31 57.5t-7.5 43h74q9 -37 39.5 -65t82.5 -29q40 -1 60.5 17.5t20.5 46.5q0 25 -14 39t-36.5 23t-50.5 19q-38 16 -78 35t-67 47.5t-27 71.5q0 29 15.5 54t52 39t98.5 9
l-41 -6q-43 17 -71 35t-41 41t-13 53q0 62 45 103.5t119 41.5q76 0 121.5 -44t46.5 -117h-70q-7 44 -33.5 63t-67.5 19q-36 0 -58.5 -17.5t-22.5 -45.5q0 -23 15.5 -36.5t40.5 -22.5t53 -21q39 -15 77 -32t62.5 -45.5t24.5 -80.5q0 -44 -32.5 -74.5t-109.5 -23.5zM118 348
q0 -23 16 -38t43.5 -27t61.5 -27q33 5 52.5 25.5t19.5 48.5q0 26 -14.5 40t-39.5 24t-59 24q-35 -5 -57.5 -23.5t-22.5 -46.5z" />
    <glyph glyph-name="dieresis" unicode="&#xa8;" horiz-adv-x="533" 
d="M213 700v-98h-104v98h104zM390 700v-98h-104v98h104z" />
    <glyph glyph-name="copyright" unicode="&#xa9;" horiz-adv-x="735" 
d="M368 14q-96 0 -167.5 39.5t-111 111t-39.5 167.5q0 97 39 168t110.5 110t168.5 39t168 -39t110 -110t39 -168q0 -96 -39.5 -167.5t-110.5 -111t-167 -39.5zM368 86q57 0 102.5 17t77 49t48.5 77.5t17 102.5t-16.5 102.5t-48.5 77.5t-77.5 48.5t-102.5 16.5
q-58 0 -103.5 -16.5t-77.5 -48.5t-48.5 -77.5t-16.5 -102.5t17 -102.5t49 -77.5t77.5 -49t102.5 -17zM493 313q0 -36 -16 -62.5t-43.5 -41t-62.5 -14.5q-55 0 -92 39t-37 97q0 39 17 70t46.5 49t65.5 18q35 0 62 -14.5t43.5 -40.5t16.5 -62h-62q-4 25 -21 38t-39 13
q-26 0 -44 -20t-18 -51t17.5 -50.5t44.5 -19.5q23 0 40 13.5t20 38.5h62z" />
    <glyph glyph-name="ordfeminine" unicode="&#xaa;" horiz-adv-x="525" 
d="M224 300q-56 0 -98.5 26.5t-65.5 72t-23 100.5q0 60 23.5 107.5t68 75.5t105.5 28q44 0 73.5 -17t48 -46.5t26.5 -67.5t8 -80q0 -23 -9 -56.5t-28.5 -66t-51 -54.5t-77.5 -22zM244 377q33 0 58.5 10.5t42.5 28t26 39.5t9 44q0 30 -9 54.5t-26.5 42t-43 27t-57.5 9.5
q-69 0 -98 -37.5t-29 -95.5q0 -50 32.5 -86t94.5 -36zM380 700h80v-390h-73l-1.5 17.5t-3.5 39.5t-2 33v300z" />
    <glyph glyph-name="guillemotleft" unicode="&#xab;" horiz-adv-x="498" 
d="M270 527l55 -55l-185 -193l185 -193l-55 -55l-228 248zM355 391l53 -53l-58 -59l58 -59l-53 -53l-102 112z" />
    <glyph glyph-name="logicalnot" unicode="&#xac;" horiz-adv-x="595" 
d="M85 405h410v-245h-80v170h-330v75z" />
    <glyph glyph-name="uni00AD" unicode="&#xad;" horiz-adv-x="600" 
d="M80 307h290v-74h-290v74z" />
    <glyph glyph-name="registered" unicode="&#xae;" horiz-adv-x="675" 
d="M338 95q-81 0 -146.5 38t-103.5 103.5t-38 146.5q0 82 37.5 146.5t103 102.5t147.5 38t146.5 -38t102.5 -102.5t38 -146.5q0 -81 -38 -146.5t-103 -103.5t-146 -38zM338 167q50 0 89.5 16.5t67.5 45.5t43 68.5t15 85.5t-15 85.5t-43 68.5t-67.5 45t-89.5 16t-90 -16
t-68 -45t-43 -68.5t-15 -85.5t15 -85.5t43 -68.5t68 -45.5t90 -16.5zM241 257v262h108q58 0 82 -22.5t24 -57.5q0 -28 -10.5 -47.5t-41.5 -24.5q20 -3 30 -11.5t14 -20t4 -26.5v-52h-66v51q0 10 -2 16.5t-9.5 9.5t-24.5 3h-42v-80h-66zM306 397h45q20 0 29.5 8.5t9.5 24.5
q0 14 -9 20.5t-30 6.5h-45v-60z" />
    <glyph glyph-name="macron" unicode="&#xaf;" horiz-adv-x="440" 
d="M100 613v70h240v-70h-240z" />
    <glyph glyph-name="degree" unicode="&#xb0;" horiz-adv-x="350" 
d="M175 411q-34 0 -62.5 17t-45.5 45.5t-17 63.5t17 63t45.5 45t62.5 17q35 0 63 -17t45 -45t17 -63t-17 -63.5t-45 -45.5t-63 -17zM175 475q25 0 42.5 18.5t17.5 43.5t-17.5 43t-42.5 18t-42.5 -18t-17.5 -43t17.5 -43.5t42.5 -18.5z" />
    <glyph glyph-name="plusminus" unicode="&#xb1;" horiz-adv-x="460" 
d="M50 255v70h360v-70h-360zM60 -10v75h340v-75h-340zM195 130v320h70v-320h-70z" />
    <glyph glyph-name="uni00B2" unicode="&#xb2;" horiz-adv-x="333" 
d="M143 461l140 3v-64h-224v63q48 36 82 57.5t51.5 38t17.5 38.5q0 19 -12 31t-35 12q-24 0 -37.5 -17t-6.5 -41h-66q-8 35 5.5 64t42.5 46.5t67 17.5q56 0 85.5 -30.5t29.5 -72.5q0 -51 -37 -83t-103 -63z" />
    <glyph glyph-name="uni00B3" unicode="&#xb3;" horiz-adv-x="328" 
d="M208 549q70 -15 70 -76q0 -34 -26.5 -62.5t-85.5 -28.5q-64 0 -91.5 34.5t-24.5 77.5h66q-1 -13 8.5 -27.5t41.5 -14.5q23 0 33 11t10 27q0 34 -48 34h-55v49h55q24 0 34 10t10 26q0 33 -41 33q-28 0 -38.5 -12t-9.5 -25h-61q-7 42 22 73.5t89 31.5q53 0 80.5 -25.5
t27.5 -64.5q0 -25 -15.5 -44t-50.5 -27z" />
    <glyph glyph-name="acute" unicode="&#xb4;" horiz-adv-x="390" 
d="M93 601l106 161h105l-140 -161h-71z" />
    <glyph glyph-name="uni00B5" unicode="&#xb5;" horiz-adv-x="598" 
d="M588 -10q-62 0 -102 21.5t-58.5 62t-18.5 95.5v331h80v-331q0 -43 10.5 -64.5t32.5 -28t56 -6.5v-80zM414 233l1 -28q-1 -12 -5.5 -37t-15 -55.5t-30 -58.5t-50 -46t-75.5 -18q-37 0 -64 18t-42 53l12 13v-274h-80v700h80v-312q0 -45 14.5 -70.5t39.5 -36.5t56 -11
q51 0 85 26t52 64t22 73z" />
    <glyph glyph-name="paragraph" unicode="&#xb6;" horiz-adv-x="568" 
d="M488 650v-650h-78v268h-54v-268h-78v268h-43q-55 0 -101.5 23t-75 66t-28.5 102t28.5 102t75 66t101.5 23h253zM241 345h169v228h-169q-55 0 -93 -26t-38 -88t38 -88t93 -26z" />
    <glyph glyph-name="periodcentered" unicode="&#xb7;" horiz-adv-x="234" 
d="M169 322v-98h-104v98h104z" />
    <glyph glyph-name="cedilla" unicode="&#xb8;" horiz-adv-x="428" 
d="M286 16v-101l-20 47q14 -6 25 -14.5t19.5 -20t13 -26.5t4.5 -34q0 -36 -27 -66.5t-84 -30.5q-36 0 -62 16t-38 41.5t-7 53.5h58q1 -7 5 -18.5t15.5 -21t33.5 -9.5q25 0 33.5 14.5t8.5 27.5q0 11 -4.5 23.5t-17 25.5t-37.5 23v70h81z" />
    <glyph glyph-name="uni00B9" unicode="&#xb9;" horiz-adv-x="237" 
d="M40 636v64h147v-300h-68v236h-79z" />
    <glyph glyph-name="ordmasculine" unicode="&#xba;" horiz-adv-x="562" 
d="M282 290q-64 0 -112.5 27t-75.5 74.5t-27 107.5t27 107.5t75.5 75.5t112.5 28t112 -28t74.5 -75.5t26.5 -107.5t-26.5 -107.5t-74.5 -74.5t-112 -27zM282 364q41 0 71 17.5t46.5 48t16.5 69.5t-16.5 70t-46.5 49t-71 18t-71.5 -18t-47.5 -48.5t-17 -70.5
q0 -39 16.5 -69.5t47.5 -48t72 -17.5z" />
    <glyph glyph-name="guillemotright" unicode="&#xbb;" horiz-adv-x="506" 
d="M163 472l55 55l228 -248l-228 -248l-55 55l185 193zM80 338l53 53l102 -112l-102 -112l-53 53l58 59z" />
    <glyph glyph-name="onequarter" unicode="&#xbc;" horiz-adv-x="753" 
d="M25 260v65h86v259h-80v66h155v-325h74v-65h-235zM575 700l54 -30l-382 -690l-52 32zM600 0v76h-156v60l157 254h67v-249h40v-65h-40v-76h-68zM520 141h80v140z" />
    <glyph glyph-name="onehalf" unicode="&#xbd;" horiz-adv-x="792" 
d="M25 260v65h86v259h-80v66h155v-325h74v-65h-235zM575 700l54 -30l-382 -690l-52 32zM752 0h-239v65q25 25 48.5 50t43.5 48t35.5 44t24 39.5t8.5 34.5q0 52 -49 52q-25 0 -36.5 -14.5t-11.5 -27.5h-62q-3 30 11.5 54.5t41.5 38.5t61 14q36 0 61.5 -13.5t39 -37.5
t13.5 -56q0 -36 -17 -68.5t-43 -62t-53 -57.5l-37 -38h160v-65z" />
    <glyph glyph-name="threequarters" unicode="&#xbe;" horiz-adv-x="721" 
d="M175 465q32 -4 54.5 -15.5t34.5 -31t12 -48.5q0 -50 -32.5 -85t-85.5 -35q-38 0 -66.5 17t-42.5 44.5t-11 58.5h60q0 -23 15 -38.5t45 -15.5q28 0 40 15.5t12 41.5t-18 42.5t-53 16.5h-23v61h23q35 0 50.5 14t15.5 39q0 20 -14.5 33t-36.5 13t-36 -13t-14 -33h-61
q-3 30 10.5 55.5t40 40.5t60.5 15q53 0 84.5 -31.5t31.5 -69.5q0 -41 -24.5 -63t-70.5 -28zM543 700l54 -30l-382 -690l-52 32zM568 0v76h-156v60l157 254h67v-249h40v-65h-40v-76h-68zM488 141h80v140z" />
    <glyph glyph-name="questiondown" unicode="&#xbf;" horiz-adv-x="526" 
d="M232 483v98h104v-98h-104zM386 67h80q0 -33 -9.5 -62.5t-28 -54t-44 -42t-57 -27.5t-68.5 -10q-46 0 -82.5 15t-62.5 42.5t-40 64t-14 79.5q0 61 24 102.5t66 65.5t94 30v110h80v-173h-24q-81 0 -120.5 -35.5t-39.5 -98.5q0 -59 35.5 -93t88.5 -34q36 0 63.5 15t43 42.5
t15.5 63.5z" />
    <glyph glyph-name="Agrave" unicode="&#xc0;" horiz-adv-x="620" 
d="M152 170v75h312v-75h-312zM20 0l247 650h84l249 -650h-86l-217 588h24l-217 -588h-84zM274 741l-140 161h105l106 -161h-71z" />
    <glyph glyph-name="Aacute" unicode="&#xc1;" horiz-adv-x="620" 
d="M152 170v75h312v-75h-312zM20 0l247 650h84l249 -650h-86l-217 588h24l-217 -588h-84zM270 741l106 161h105l-140 -161h-71z" />
    <glyph glyph-name="Acircumflex" unicode="&#xc2;" horiz-adv-x="620" 
d="M152 170v75h312v-75h-312zM20 0l247 650h84l249 -650h-86l-217 588h24l-217 -588h-84zM345 902l135 -161h-95l-95 140h40l-96 -140h-96l136 161h71z" />
    <glyph glyph-name="Atilde" unicode="&#xc3;" horiz-adv-x="620" 
d="M152 170v75h312v-75h-312zM20 0l247 650h84l249 -650h-86l-217 588h24l-217 -588h-84zM376 742q-26 0 -45 9.5t-34.5 22.5t-31.5 22.5t-37 9.5q-20 0 -30 -10.5t-14 -25.5t-6 -29h-66q2 37 15 67.5t35.5 49t55.5 18.5q26 0 46.5 -9.5t37 -22.5t32 -22.5t32.5 -9.5
q19 0 29.5 10.5t14.5 26t6 28.5h66q-3 -37 -15.5 -67.5t-35.5 -49t-55 -18.5z" />
    <glyph glyph-name="Adieresis" unicode="&#xc4;" horiz-adv-x="620" 
d="M152 170v75h312v-75h-312zM20 0l247 650h84l249 -650h-86l-217 588h24l-217 -588h-84zM174 650v-98h-104v98h104zM551 650v-98h-104v98h104z" />
    <glyph glyph-name="Aring" unicode="&#xc5;" horiz-adv-x="620" 
d="M152 170v75h312v-75h-312zM20 0l247 650h84l249 -650h-86l-217 588h24l-217 -588h-84zM310 717q-55 0 -92 30.5t-37 81.5q0 50 37 80.5t92 30.5q56 0 92.5 -30.5t36.5 -80.5q0 -51 -36.5 -81.5t-92.5 -30.5zM310 772q33 0 48 15t15 42q0 26 -15 41t-48 15q-34 0 -49 -15
t-15 -41q0 -27 15 -42t49 -15z" />
    <glyph glyph-name="AE" unicode="&#xc6;" horiz-adv-x="921" 
d="M480 286v-211h381v-75h-461v586l17 -4l-313 -582h-84l356 650h484v-75h-380v-214h311v-75h-311zM162 176v75h272v-75h-272z" />
    <glyph glyph-name="Ccedilla" unicode="&#xc7;" horiz-adv-x="690" 
d="M282 -119q1 -7 5 -18.5t15.5 -21t33.5 -9.5q25 0 33.5 14.5t8.5 27.5q0 11 -4.5 23.5t-17 25.5t-37.5 23l42 22q23 -6 41 -18.5t29 -32.5t11 -50q0 -36 -27 -66.5t-84 -30.5q-36 0 -62 16t-38 41.5t-7 53.5h58zM319 16h81v-80l-81 10v70zM639 217q-10 -70 -48 -121
t-96.5 -78.5t-130.5 -27.5q-67 0 -124 23.5t-99.5 67.5t-66.5 106t-24 138q0 77 24 138.5t66.5 105.5t99.5 67.5t124 23.5q73 0 131.5 -27.5t96.5 -79t48 -122.5h-74q-14 50 -43.5 84t-70.5 52t-88 18q-61 0 -114.5 -30t-86.5 -88t-33 -142t33 -142t86.5 -88t114.5 -30
q47 0 87.5 17.5t70 51.5t43.5 83h74z" />
    <glyph glyph-name="Egrave" unicode="&#xc8;" horiz-adv-x="601" 
d="M160 286v-211h381v-75h-461v650h460v-75h-380v-214h311v-75h-311zM275 741l-140 161h105l106 -161h-71z" />
    <glyph glyph-name="Eacute" unicode="&#xc9;" horiz-adv-x="601" 
d="M160 286v-211h381v-75h-461v650h460v-75h-380v-214h311v-75h-311zM271 741l106 161h105l-140 -161h-71z" />
    <glyph glyph-name="Ecircumflex" unicode="&#xca;" horiz-adv-x="601" 
d="M160 286v-211h381v-75h-461v650h460v-75h-380v-214h311v-75h-311zM346 902l135 -161h-95l-95 140h40l-96 -140h-96l136 161h71z" />
    <glyph glyph-name="Edieresis" unicode="&#xcb;" horiz-adv-x="601" 
d="M160 286v-211h381v-75h-461v650h460v-75h-380v-214h311v-75h-311zM275 840v-98h-104v98h104zM452 840v-98h-104v98h104z" />
    <glyph glyph-name="Igrave" unicode="&#xcc;" horiz-adv-x="280" 
d="M100 650h80v-650h-80v650zM104 741l-140 161h105l106 -161h-71z" />
    <glyph glyph-name="Iacute" unicode="&#xcd;" horiz-adv-x="280" 
d="M100 650h80v-650h-80v650zM100 741l106 161h105l-140 -161h-71z" />
    <glyph glyph-name="Icircumflex" unicode="&#xce;" horiz-adv-x="280" 
d="M100 650h80v-650h-80v650zM175 902l135 -161h-95l-95 140h40l-96 -140h-96l136 161h71z" />
    <glyph glyph-name="Idieresis" unicode="&#xcf;" horiz-adv-x="280" 
d="M100 650h80v-650h-80v650zM104 840v-98h-104v98h104zM281 840v-98h-104v98h104z" />
    <glyph glyph-name="Eth" unicode="&#xd0;" horiz-adv-x="688" 
d="M291 650q98 0 164.5 -25.5t106.5 -70.5t58 -103t18 -123t-19 -124t-60.5 -105t-107.5 -72.5t-160 -26.5h-211v650h211zM160 75h131q79 0 130.5 22t81.5 58.5t42.5 81.5t12.5 91t-12.5 90t-42.5 79.5t-81.5 56.5t-130.5 21h-131v-500zM0 360h300v-70h-300v70z" />
    <glyph glyph-name="Ntilde" unicode="&#xd1;" horiz-adv-x="720" 
d="M582 95l-22 -7v562h80v-650h-80l-422 554l22 7v-561h-80v650h80zM433 742q-26 0 -45 9.5t-34.5 22.5t-31.5 22.5t-37 9.5q-20 0 -30 -10.5t-14 -25.5t-6 -29h-66q2 37 15 67.5t35.5 49t55.5 18.5q26 0 46.5 -9.5t37 -22.5t32 -22.5t32.5 -9.5q19 0 29.5 10.5t14.5 26
t6 28.5h66q-3 -37 -15.5 -67.5t-35.5 -49t-55 -18.5z" />
    <glyph glyph-name="Ograve" unicode="&#xd2;" horiz-adv-x="740" 
d="M370 -10q-89 0 -161.5 41.5t-115.5 116.5t-43 177t43 177.5t115.5 116.5t161.5 41t161.5 -41t115.5 -116.5t43 -177.5t-43 -177t-115.5 -116.5t-161.5 -41.5zM370 65q68 0 122 29.5t86 87.5t32 143t-32 142.5t-86 87.5t-122 30q-67 0 -121.5 -30t-86.5 -87.5t-32 -142.5
t32 -143t86.5 -87.5t121.5 -29.5zM334 741l-140 161h105l106 -161h-71z" />
    <glyph glyph-name="Oacute" unicode="&#xd3;" horiz-adv-x="740" 
d="M370 -10q-89 0 -161.5 41.5t-115.5 116.5t-43 177t43 177.5t115.5 116.5t161.5 41t161.5 -41t115.5 -116.5t43 -177.5t-43 -177t-115.5 -116.5t-161.5 -41.5zM370 65q68 0 122 29.5t86 87.5t32 143t-32 142.5t-86 87.5t-122 30q-67 0 -121.5 -30t-86.5 -87.5t-32 -142.5
t32 -143t86.5 -87.5t121.5 -29.5zM330 741l106 161h105l-140 -161h-71z" />
    <glyph glyph-name="Ocircumflex" unicode="&#xd4;" horiz-adv-x="740" 
d="M370 -10q-89 0 -161.5 41.5t-115.5 116.5t-43 177t43 177.5t115.5 116.5t161.5 41t161.5 -41t115.5 -116.5t43 -177.5t-43 -177t-115.5 -116.5t-161.5 -41.5zM370 65q68 0 122 29.5t86 87.5t32 143t-32 142.5t-86 87.5t-122 30q-67 0 -121.5 -30t-86.5 -87.5t-32 -142.5
t32 -143t86.5 -87.5t121.5 -29.5zM405 902l135 -161h-95l-95 140h40l-96 -140h-96l136 161h71z" />
    <glyph glyph-name="Otilde" unicode="&#xd5;" horiz-adv-x="740" 
d="M370 -10q-89 0 -161.5 41.5t-115.5 116.5t-43 177t43 177.5t115.5 116.5t161.5 41t161.5 -41t115.5 -116.5t43 -177.5t-43 -177t-115.5 -116.5t-161.5 -41.5zM370 65q68 0 122 29.5t86 87.5t32 143t-32 142.5t-86 87.5t-122 30q-67 0 -121.5 -30t-86.5 -87.5t-32 -142.5
t32 -143t86.5 -87.5t121.5 -29.5zM436 742q-26 0 -45 9.5t-34.5 22.5t-31.5 22.5t-37 9.5q-20 0 -30 -10.5t-14 -25.5t-6 -29h-66q2 37 15 67.5t35.5 49t55.5 18.5q26 0 46.5 -9.5t37 -22.5t32 -22.5t32.5 -9.5q19 0 29.5 10.5t14.5 26t6 28.5h66q-3 -37 -15.5 -67.5
t-35.5 -49t-55 -18.5z" />
    <glyph glyph-name="Odieresis" unicode="&#xd6;" horiz-adv-x="740" 
d="M370 -10q-89 0 -161.5 41.5t-115.5 116.5t-43 177t43 177.5t115.5 116.5t161.5 41t161.5 -41t115.5 -116.5t43 -177.5t-43 -177t-115.5 -116.5t-161.5 -41.5zM370 65q68 0 122 29.5t86 87.5t32 143t-32 142.5t-86 87.5t-122 30q-67 0 -121.5 -30t-86.5 -87.5t-32 -142.5
t32 -143t86.5 -87.5t121.5 -29.5zM104 650v-98h-104v98h104zM741 650v-98h-104v98h104z" />
    <glyph glyph-name="multiply" unicode="&#xd7;" horiz-adv-x="404" 
d="M99 118l255 255l-49 49l-255 -255zM305 118l49 49l-255 255l-49 -49z" />
    <glyph glyph-name="Oslash" unicode="&#xd8;" horiz-adv-x="740" 
d="M370 -10q-89 0 -161.5 41.5t-115.5 116.5t-43 177t43 177.5t115.5 116.5t161.5 41t161.5 -41t115.5 -116.5t43 -177.5t-43 -177t-115.5 -116.5t-161.5 -41.5zM370 65q68 0 122 29.5t86 87.5t32 143t-32 142.5t-86 87.5t-122 30q-67 0 -121.5 -30t-86.5 -87.5t-32 -142.5
t32 -143t86.5 -87.5t121.5 -29.5zM533 677l54 -30l-382 -690l-52 32z" />
    <glyph glyph-name="Ugrave" unicode="&#xd9;" horiz-adv-x="695" 
d="M535 250v400h80v-400q0 -55 -13 -97.5t-36.5 -73.5t-56.5 -50.5t-73.5 -29t-86.5 -9.5q-47 0 -88 9.5t-74.5 29t-57 50.5t-36.5 73.5t-13 97.5v400h80v-400q0 -75 26 -115t69 -55t94 -15q50 0 92 15t68 55t26 115zM313 741l-140 161h105l106 -161h-71z" />
    <glyph glyph-name="Uacute" unicode="&#xda;" horiz-adv-x="695" 
d="M535 250v400h80v-400q0 -55 -13 -97.5t-36.5 -73.5t-56.5 -50.5t-73.5 -29t-86.5 -9.5q-47 0 -88 9.5t-74.5 29t-57 50.5t-36.5 73.5t-13 97.5v400h80v-400q0 -75 26 -115t69 -55t94 -15q50 0 92 15t68 55t26 115zM309 741l106 161h105l-140 -161h-71z" />
    <glyph glyph-name="Ucircumflex" unicode="&#xdb;" horiz-adv-x="695" 
d="M535 250v400h80v-400q0 -55 -13 -97.5t-36.5 -73.5t-56.5 -50.5t-73.5 -29t-86.5 -9.5q-47 0 -88 9.5t-74.5 29t-57 50.5t-36.5 73.5t-13 97.5v400h80v-400q0 -75 26 -115t69 -55t94 -15q50 0 92 15t68 55t26 115zM384 902l135 -161h-95l-95 140h40l-96 -140h-96l136 161
h71z" />
    <glyph glyph-name="Udieresis" unicode="&#xdc;" horiz-adv-x="695" 
d="M535 250v400h80v-400q0 -55 -13 -97.5t-36.5 -73.5t-56.5 -50.5t-73.5 -29t-86.5 -9.5q-47 0 -88 9.5t-74.5 29t-57 50.5t-36.5 73.5t-13 97.5v400h80v-400q0 -75 26 -115t69 -55t94 -15q50 0 92 15t68 55t26 115zM311 650v-98h-104v98h104zM488 650v-98h-104v98h104z
" />
    <glyph glyph-name="Yacute" unicode="&#xdd;" horiz-adv-x="590" 
d="M565 650l-230 -427v-223h-80v223l-230 427h90l198 -375h-32l194 375h90zM255 741l106 161h105l-140 -161h-71z" />
    <glyph glyph-name="Thorn" unicode="&#xde;" horiz-adv-x="606" 
d="M346 535q45 0 84 -14t68.5 -41t46 -66t16.5 -89t-16.5 -89t-46 -66t-68.5 -41t-84 -14h-200v75h200q60 0 97.5 37.5t37.5 97.5q0 62 -37.5 98.5t-97.5 36.5h-200v75h200zM78 650h80v-650h-80v650z" />
    <glyph glyph-name="germandbls" unicode="&#xdf;" horiz-adv-x="521" 
d="M278 -160v74q37 0 64 8t44.5 23t26 37t8.5 50q0 26 -7.5 48t-24 37.5t-41.5 24t-61 8.5h-38v74l126 233l19 -32h-253v75h308v-73l-139 -255l-9 33q41 0 77.5 -9.5t64 -30t43 -53.5t15.5 -80q0 -39 -14.5 -73.5t-42.5 -61t-69.5 -42t-96.5 -15.5zM77 0v530q0 60 21.5 97.5
t60 55t88.5 17.5h46v-80h-46q-37 1 -63.5 -18t-26.5 -72v-530h-80z" />
    <glyph glyph-name="agrave" unicode="&#xe0;" horiz-adv-x="569" 
d="M254 -10q-59 0 -108.5 33.5t-79 92t-29.5 133.5t30 134t81.5 93t115.5 34q70 0 106.5 -35.5t50 -94.5t13.5 -131q0 -38 -8 -82.5t-27.5 -85t-54.5 -66t-90 -25.5zM274 66q51 0 84.5 25t49.5 66.5t16 91.5q0 55 -16.5 96.5t-50 65t-83.5 23.5q-75 0 -116 -52.5t-41 -132.5
q0 -53 20.5 -94.5t56 -65t80.5 -23.5zM424 500h80v-500h-73l-1.5 18l-3.5 42t-2 40v400zM245 601l-140 161h105l106 -161h-71z" />
    <glyph glyph-name="aacute" unicode="&#xe1;" horiz-adv-x="569" 
d="M254 -10q-59 0 -108.5 33.5t-79 92t-29.5 133.5t30 134t81.5 93t115.5 34q70 0 106.5 -35.5t50 -94.5t13.5 -131q0 -38 -8 -82.5t-27.5 -85t-54.5 -66t-90 -25.5zM274 66q51 0 84.5 25t49.5 66.5t16 91.5q0 55 -16.5 96.5t-50 65t-83.5 23.5q-75 0 -116 -52.5t-41 -132.5
q0 -53 20.5 -94.5t56 -65t80.5 -23.5zM424 500h80v-500h-73l-1.5 18l-3.5 42t-2 40v400zM241 601l106 161h105l-140 -161h-71z" />
    <glyph glyph-name="acircumflex" unicode="&#xe2;" horiz-adv-x="569" 
d="M254 -10q-59 0 -108.5 33.5t-79 92t-29.5 133.5t30 134t81.5 93t115.5 34q70 0 106.5 -35.5t50 -94.5t13.5 -131q0 -38 -8 -82.5t-27.5 -85t-54.5 -66t-90 -25.5zM274 66q51 0 84.5 25t49.5 66.5t16 91.5q0 55 -16.5 96.5t-50 65t-83.5 23.5q-75 0 -116 -52.5t-41 -132.5
q0 -53 20.5 -94.5t56 -65t80.5 -23.5zM424 500h80v-500h-73l-1.5 18l-3.5 42t-2 40v400zM316 762l135 -161h-95l-95 140h40l-96 -140h-96l136 161h71z" />
    <glyph glyph-name="atilde" unicode="&#xe3;" horiz-adv-x="569" 
d="M254 -10q-59 0 -108.5 33.5t-79 92t-29.5 133.5t30 134t81.5 93t115.5 34q70 0 106.5 -35.5t50 -94.5t13.5 -131q0 -38 -8 -82.5t-27.5 -85t-54.5 -66t-90 -25.5zM274 66q51 0 84.5 25t49.5 66.5t16 91.5q0 55 -16.5 96.5t-50 65t-83.5 23.5q-75 0 -116 -52.5t-41 -132.5
q0 -53 20.5 -94.5t56 -65t80.5 -23.5zM424 500h80v-500h-73l-1.5 18l-3.5 42t-2 40v400zM347 602q-26 0 -45 9.5t-34.5 22.5t-31.5 22.5t-37 9.5q-20 0 -30 -10.5t-14 -25.5t-6 -29h-66q2 37 15 67.5t35.5 49t55.5 18.5q26 0 46.5 -9.5t37 -22.5t32 -22.5t32.5 -9.5
q19 0 29.5 10.5t14.5 26t6 28.5h66q-3 -37 -15.5 -67.5t-35.5 -49t-55 -18.5z" />
    <glyph glyph-name="adieresis" unicode="&#xe4;" horiz-adv-x="569" 
d="M254 -10q-59 0 -108.5 33.5t-79 92t-29.5 133.5t30 134t81.5 93t115.5 34q70 0 106.5 -35.5t50 -94.5t13.5 -131q0 -38 -8 -82.5t-27.5 -85t-54.5 -66t-90 -25.5zM274 66q51 0 84.5 25t49.5 66.5t16 91.5q0 55 -16.5 96.5t-50 65t-83.5 23.5q-75 0 -116 -52.5t-41 -132.5
q0 -53 20.5 -94.5t56 -65t80.5 -23.5zM424 500h80v-500h-73l-1.5 18l-3.5 42t-2 40v400zM245 700v-98h-104v98h104zM422 700v-98h-104v98h104z" />
    <glyph glyph-name="aring" unicode="&#xe5;" horiz-adv-x="569" 
d="M254 -10q-59 0 -108.5 33.5t-79 92t-29.5 133.5t30 134t81.5 93t115.5 34q70 0 106.5 -35.5t50 -94.5t13.5 -131q0 -38 -8 -82.5t-27.5 -85t-54.5 -66t-90 -25.5zM274 66q51 0 84.5 25t49.5 66.5t16 91.5q0 55 -16.5 96.5t-50 65t-83.5 23.5q-75 0 -116 -52.5t-41 -132.5
q0 -53 20.5 -94.5t56 -65t80.5 -23.5zM424 500h80v-500h-73l-1.5 18l-3.5 42t-2 40v400zM281 577q-55 0 -92 30.5t-37 81.5q0 50 37 80.5t92 30.5q56 0 92.5 -30.5t36.5 -80.5q0 -51 -36.5 -81.5t-92.5 -30.5zM281 632q33 0 48 15t15 42q0 26 -15 41t-48 15q-34 0 -49 -15
t-15 -41q0 -27 15 -42t49 -15z" />
    <glyph glyph-name="ae" unicode="&#xe6;" horiz-adv-x="972" 
d="M254 -10q-59 0 -108.5 33.5t-79 92t-29.5 133.5t30 134t81.5 93t115.5 34q70 0 106.5 -35.5t50 -94.5t13.5 -131q0 -38 -8 -82.5t-27.5 -85t-54.5 -66t-90 -25.5zM274 66q51 0 84.5 25t49.5 66.5t16 91.5q0 55 -16.5 96.5t-50 65t-83.5 23.5q-75 0 -116 -52.5t-41 -132.5
q0 -53 20.5 -94.5t56 -65t80.5 -23.5zM424 500h80v-500h-73q-2 22 -4.5 52t-2.5 48v400zM856 159h75q-8 -48 -35.5 -87t-72 -61.5t-102.5 -22.5q-70 0 -126 33.5t-88.5 92t-32.5 133.5t31.5 134t86.5 93t124 34q73 0 123.5 -32.5t75 -95t19.5 -153.5h-380q5 -49 26.5 -86
t58 -57.5t82.5 -20.5q51 0 86.5 26.5t48.5 69.5zM719 433q-62 0 -104 -36t-56 -98h293q-4 66 -42.5 100t-90.5 34z" />
    <glyph glyph-name="ccedilla" unicode="&#xe7;" horiz-adv-x="546" 
d="M204 -129q1 -7 5 -18.5t15.5 -21t33.5 -9.5q25 0 33.5 14.5t8.5 27.5q0 11 -4.5 23.5t-17 25.5t-37.5 23l42 22q23 -6 41 -18.5t29 -32.5t11 -50q0 -36 -27 -66.5t-84 -30.5q-36 0 -62 16t-38 41.5t-7 53.5h58zM241 6h81v-80l-81 10v70zM509 188q-7 -62 -39.5 -106.5
t-81.5 -68t-106 -23.5q-64 0 -120 31t-90.5 89.5t-34.5 138.5t34.5 138.5t90.5 90.5t120 32q57 0 105.5 -24t81 -68t40.5 -105h-73q-17 57 -59 89.5t-95 32.5q-43 0 -81 -22t-61 -63.5t-23 -100.5q0 -58 23 -99.5t60.5 -63t81.5 -21.5q61 0 99.5 32.5t55.5 90.5h72z" />
    <glyph glyph-name="egrave" unicode="&#xe8;" horiz-adv-x="535" 
d="M419 161h75q-8 -49 -35.5 -87.5t-72 -61t-102.5 -22.5q-70 0 -126 33.5t-88.5 92t-32.5 133.5t31.5 134t86.5 93t124 34q73 0 123.5 -32.5t75 -95t19.5 -153.5h-380q5 -49 27 -86t58 -57.5t82 -20.5q51 0 86.5 26.5t48.5 69.5zM282 435q-62 0 -104 -36t-56 -98h293
q-4 66 -42.5 100t-90.5 34zM243 601l-140 161h105l106 -161h-71z" />
    <glyph glyph-name="eacute" unicode="&#xe9;" horiz-adv-x="535" 
d="M419 161h75q-8 -49 -35.5 -87.5t-72 -61t-102.5 -22.5q-70 0 -126 33.5t-88.5 92t-32.5 133.5t31.5 134t86.5 93t124 34q73 0 123.5 -32.5t75 -95t19.5 -153.5h-380q5 -49 27 -86t58 -57.5t82 -20.5q51 0 86.5 26.5t48.5 69.5zM282 435q-62 0 -104 -36t-56 -98h293
q-4 66 -42.5 100t-90.5 34zM239 601l106 161h105l-140 -161h-71z" />
    <glyph glyph-name="ecircumflex" unicode="&#xea;" horiz-adv-x="535" 
d="M419 161h75q-8 -49 -35.5 -87.5t-72 -61t-102.5 -22.5q-70 0 -126 33.5t-88.5 92t-32.5 133.5t31.5 134t86.5 93t124 34q73 0 123.5 -32.5t75 -95t19.5 -153.5h-380q5 -49 27 -86t58 -57.5t82 -20.5q51 0 86.5 26.5t48.5 69.5zM282 435q-62 0 -104 -36t-56 -98h293
q-4 66 -42.5 100t-90.5 34zM314 762l135 -161h-95l-95 140h40l-96 -140h-96l136 161h71z" />
    <glyph glyph-name="edieresis" unicode="&#xeb;" horiz-adv-x="535" 
d="M419 161h75q-8 -49 -35.5 -87.5t-72 -61t-102.5 -22.5q-70 0 -126 33.5t-88.5 92t-32.5 133.5t31.5 134t86.5 93t124 34q73 0 123.5 -32.5t75 -95t19.5 -153.5h-380q5 -49 27 -86t58 -57.5t82 -20.5q51 0 86.5 26.5t48.5 69.5zM282 435q-62 0 -104 -36t-56 -98h293
q-4 66 -42.5 100t-90.5 34zM243 700v-98h-104v98h104zM420 700v-98h-104v98h104z" />
    <glyph glyph-name="igrave" unicode="&#xec;" horiz-adv-x="200" 
d="M60 500h80v-500h-80v500zM64 601l-140 161h105l106 -161h-71z" />
    <glyph glyph-name="iacute" unicode="&#xed;" horiz-adv-x="200" 
d="M60 500h80v-500h-80v500zM60 601l106 161h105l-140 -161h-71z" />
    <glyph glyph-name="icircumflex" unicode="&#xee;" horiz-adv-x="200" 
d="M60 500h80v-500h-80v500zM135 762l135 -161h-95l-95 140h40l-96 -140h-96l136 161h71z" />
    <glyph glyph-name="idieresis" unicode="&#xef;" horiz-adv-x="200" 
d="M60 500h80v-500h-80v500zM86 700v-98h-104v98h104zM219 700v-98h-104v98h104z" />
    <glyph glyph-name="eth" unicode="&#xf0;" horiz-adv-x="549" 
d="M274 67q38 0 66.5 14t47 39.5t27.5 58.5t9 70q0 41 -9.5 75t-28 58.5t-46.5 37.5t-66 13q-75 0 -116 -52t-41 -132t43.5 -131t113.5 -51zM353 710l44 -48l-101 -94l-40 50zM118 642l29 68q73 -27 128 -60.5t94.5 -71.5t65.5 -78.5t41.5 -82t21.5 -83t6 -81.5
q0 -37 -9 -74.5t-27 -71.5t-45.5 -60.5t-64.5 -41.5t-84 -15q-72 0 -125 33.5t-82.5 92t-29.5 133.5q0 56 16 104t45 83t68.5 54.5t87.5 19.5q36 0 63.5 -10t47.5 -27.5t33 -42.5l-3 3q-15 31 -39 60t-57.5 55t-78.5 49.5t-102 44.5z" />
    <glyph glyph-name="ntilde" unicode="&#xf1;" horiz-adv-x="554" 
d="M65 500h80v-500h-80v500zM317 510q40 0 72 -12t54 -35t34 -55.5t12 -73.5v-334h-80v314q0 58 -27 87t-81 29q-41 0 -76 -21t-57.5 -57.5t-27.5 -84.5l-1 58q5 42 20.5 76t39 58.5t54 37.5t64.5 13zM368 602q-26 0 -45 9.5t-34.5 22.5t-31.5 22.5t-37 9.5q-20 0 -30 -10.5
t-14 -25.5t-6 -29h-66q2 37 15 67.5t35.5 49t55.5 18.5q26 0 46.5 -9.5t37 -22.5t32 -22.5t32.5 -9.5q19 0 29.5 10.5t14.5 26t6 28.5h66q-3 -37 -15.5 -67.5t-35.5 -49t-55 -18.5z" />
    <glyph glyph-name="ograve" unicode="&#xf2;" horiz-adv-x="562" 
d="M282 -10q-64 0 -120 31t-90.5 89.5t-34.5 138.5t34.5 138.5t90.5 90.5t120 32t119.5 -32t89.5 -90.5t34 -138.5t-34 -138.5t-89.5 -89.5t-119.5 -31zM282 65q42 0 79 21t60.5 62.5t23.5 100.5t-23.5 100.5t-60.5 63.5t-79 22t-79.5 -21.5t-61.5 -63t-24 -101.5
q0 -59 23.5 -100.5t61.5 -62.5t80 -21zM246 601l-140 161h105l106 -161h-71z" />
    <glyph glyph-name="oacute" unicode="&#xf3;" horiz-adv-x="562" 
d="M282 -10q-64 0 -120 31t-90.5 89.5t-34.5 138.5t34.5 138.5t90.5 90.5t120 32t119.5 -32t89.5 -90.5t34 -138.5t-34 -138.5t-89.5 -89.5t-119.5 -31zM282 65q42 0 79 21t60.5 62.5t23.5 100.5t-23.5 100.5t-60.5 63.5t-79 22t-79.5 -21.5t-61.5 -63t-24 -101.5
q0 -59 23.5 -100.5t61.5 -62.5t80 -21zM242 601l106 161h105l-140 -161h-71z" />
    <glyph glyph-name="ocircumflex" unicode="&#xf4;" horiz-adv-x="562" 
d="M282 -10q-64 0 -120 31t-90.5 89.5t-34.5 138.5t34.5 138.5t90.5 90.5t120 32t119.5 -32t89.5 -90.5t34 -138.5t-34 -138.5t-89.5 -89.5t-119.5 -31zM282 65q42 0 79 21t60.5 62.5t23.5 100.5t-23.5 100.5t-60.5 63.5t-79 22t-79.5 -21.5t-61.5 -63t-24 -101.5
q0 -59 23.5 -100.5t61.5 -62.5t80 -21zM317 762l135 -161h-95l-95 140h40l-96 -140h-96l136 161h71z" />
    <glyph glyph-name="otilde" unicode="&#xf5;" horiz-adv-x="562" 
d="M282 -10q-64 0 -120 31t-90.5 89.5t-34.5 138.5t34.5 138.5t90.5 90.5t120 32t119.5 -32t89.5 -90.5t34 -138.5t-34 -138.5t-89.5 -89.5t-119.5 -31zM282 65q42 0 79 21t60.5 62.5t23.5 100.5t-23.5 100.5t-60.5 63.5t-79 22t-79.5 -21.5t-61.5 -63t-24 -101.5
q0 -59 23.5 -100.5t61.5 -62.5t80 -21zM348 602q-26 0 -45 9.5t-34.5 22.5t-31.5 22.5t-37 9.5q-20 0 -30 -10.5t-14 -25.5t-6 -29h-66q2 37 15 67.5t35.5 49t55.5 18.5q26 0 46.5 -9.5t37 -22.5t32 -22.5t32.5 -9.5q19 0 29.5 10.5t14.5 26t6 28.5h66q-3 -37 -15.5 -67.5
t-35.5 -49t-55 -18.5z" />
    <glyph glyph-name="odieresis" unicode="&#xf6;" horiz-adv-x="562" 
d="M282 -10q-64 0 -120 31t-90.5 89.5t-34.5 138.5t34.5 138.5t90.5 90.5t120 32t119.5 -32t89.5 -90.5t34 -138.5t-34 -138.5t-89.5 -89.5t-119.5 -31zM282 65q42 0 79 21t60.5 62.5t23.5 100.5t-23.5 100.5t-60.5 63.5t-79 22t-79.5 -21.5t-61.5 -63t-24 -101.5
q0 -59 23.5 -100.5t61.5 -62.5t80 -21zM246 700v-98h-104v98h104zM423 700v-98h-104v98h104z" />
    <glyph glyph-name="divide" unicode="&#xf7;" horiz-adv-x="480" 
d="M50 307h380v-74h-380v74zM272 182v-97h-104v97h104zM272 454v-98h-104v98h104z" />
    <glyph glyph-name="oslash" unicode="&#xf8;" horiz-adv-x="562" 
d="M407 525l54 -30l-308 -520l-52 32zM282 -10q-64 0 -120 31t-90.5 89.5t-34.5 138.5t34.5 138.5t90.5 90.5t120 32t119.5 -32t89.5 -90.5t34 -138.5t-34 -138.5t-89.5 -89.5t-119.5 -31zM282 65q42 0 79 21t60.5 62.5t23.5 100.5t-23.5 100.5t-60.5 63.5t-79 22
t-79.5 -21.5t-61.5 -63t-24 -101.5q0 -59 23.5 -100.5t61.5 -62.5t80 -21z" />
    <glyph glyph-name="ugrave" unicode="&#xf9;" horiz-adv-x="554" 
d="M489 0h-80v500h80v-500zM414 233l1 -28q-1 -12 -5.5 -37t-15 -55.5t-30 -58.5t-50 -46t-75.5 -18q-29 0 -59.5 8.5t-56.5 28t-42 54.5t-16 87v332h80v-312q0 -45 14.5 -70.5t39.5 -36.5t56 -11q51 0 85 26t52 64t22 73zM248 601l-140 161h105l106 -161h-71z" />
    <glyph glyph-name="uacute" unicode="&#xfa;" horiz-adv-x="554" 
d="M489 0h-80v500h80v-500zM414 233l1 -28q-1 -12 -5.5 -37t-15 -55.5t-30 -58.5t-50 -46t-75.5 -18q-29 0 -59.5 8.5t-56.5 28t-42 54.5t-16 87v332h80v-312q0 -45 14.5 -70.5t39.5 -36.5t56 -11q51 0 85 26t52 64t22 73zM244 601l106 161h105l-140 -161h-71z" />
    <glyph glyph-name="ucircumflex" unicode="&#xfb;" horiz-adv-x="554" 
d="M489 0h-80v500h80v-500zM414 233l1 -28q-1 -12 -5.5 -37t-15 -55.5t-30 -58.5t-50 -46t-75.5 -18q-29 0 -59.5 8.5t-56.5 28t-42 54.5t-16 87v332h80v-312q0 -45 14.5 -70.5t39.5 -36.5t56 -11q51 0 85 26t52 64t22 73zM319 762l135 -161h-95l-95 140h40l-96 -140h-96
l136 161h71z" />
    <glyph glyph-name="udieresis" unicode="&#xfc;" horiz-adv-x="554" 
d="M489 0h-80v500h80v-500zM414 233l1 -28q-1 -12 -5.5 -37t-15 -55.5t-30 -58.5t-50 -46t-75.5 -18q-29 0 -59.5 8.5t-56.5 28t-42 54.5t-16 87v332h80v-312q0 -45 14.5 -70.5t39.5 -36.5t56 -11q51 0 85 26t52 64t22 73zM248 700v-98h-104v98h104zM425 700v-98h-104v98
h104z" />
    <glyph glyph-name="yacute" unicode="&#xfd;" horiz-adv-x="505" 
d="M20 500h86l179 -480l-70 -20zM485 500l-279 -700h-87l121 270l160 430h85zM210 601l106 161h105l-140 -161h-71z" />
    <glyph glyph-name="thorn" unicode="&#xfe;" horiz-adv-x="569" 
d="M315 -10q-55 0 -90 25.5t-54.5 66t-27.5 85t-8 82.5q0 54 7.5 101t26.5 83t54.5 56.5t91.5 20.5q60 0 109 -34t78.5 -93t29.5 -134t-30 -133.5t-79.5 -92t-107.5 -33.5zM295 67q46 0 81.5 23t55.5 64.5t20 94.5q0 80 -41 132t-116 52q-44 0 -78 -23t-53 -64.5t-19 -96.5
q0 -50 16.5 -91.5t49.5 -66t84 -24.5zM65 699h80v-304v-595h-80v899z" />
    <glyph glyph-name="ydieresis" unicode="&#xff;" horiz-adv-x="505" 
d="M20 500h86l179 -480l-70 -20zM485 500l-279 -700h-87l121 270l160 430h85zM214 700v-98h-104v98h104zM391 700v-98h-104v98h104z" />
    <glyph glyph-name="Abreve" unicode="&#x102;" horiz-adv-x="620" 
d="M152 170v75h312v-75h-312zM20 0l247 650h84l249 -650h-86l-217 588h24l-217 -588h-84zM445 870q0 -45 -14.5 -79.5t-44.5 -54.5t-76 -20t-76 20t-44.5 54.5t-14.5 79.5h70q0 -44 16.5 -64t48.5 -20t48.5 20t16.5 64h70z" />
    <glyph glyph-name="dotlessi" unicode="&#x131;" horiz-adv-x="200" 
d="M60 500h80v-500h-80v500z" />
    <glyph glyph-name="OE" unicode="&#x152;" horiz-adv-x="966" 
d="M906 76v-76h-480l96 76h384zM836 361v-75h-161v75h161zM905 650v-76h-363l-133 76h496zM370 -10q-89 0 -161.5 41.5t-115.5 116.5t-43 177t43 177.5t115.5 116.5t161.5 41t161.5 -41t115.5 -116.5t43 -177.5t-43 -177t-115.5 -116.5t-161.5 -41.5zM370 65q68 0 122 29.5
t86 87.5t32 143t-32 142.5t-86 87.5t-122 30q-67 0 -121.5 -30t-86.5 -87.5t-32 -142.5t32 -143t86.5 -87.5t121.5 -29.5z" />
    <glyph glyph-name="oe" unicode="&#x153;" horiz-adv-x="943" 
d="M282 -10q-64 0 -120 31t-90.5 89.5t-34.5 138.5t34.5 138.5t90.5 90.5t120 32t119.5 -32t89.5 -90.5t34 -138.5t-34 -138.5t-89.5 -89.5t-119.5 -31zM282 65q42 0 79 21t60.5 62.5t23.5 100.5t-23.5 100.5t-60.5 63.5t-79 22t-79.5 -21.5t-61.5 -63t-24 -101.5
q0 -59 23.5 -100.5t61.5 -62.5t80 -21zM827 161h75q-8 -49 -35.5 -87.5t-72 -61t-102.5 -22.5q-70 0 -126 33.5t-88.5 92t-32.5 133.5t31.5 134t86.5 93t124 34q73 0 123.5 -32.5t75 -95t19.5 -153.5h-380q5 -49 27 -86t58 -57.5t82 -20.5q51 0 86.5 26.5t48.5 69.5z
M690 435q-62 0 -104 -36t-56 -98h293q-4 66 -42.5 100t-90.5 34z" />
    <glyph glyph-name="circumflex" unicode="&#x2c6;" horiz-adv-x="551" 
d="M311 762l135 -161h-95l-95 140h40l-96 -140h-96l136 161h71z" />
    <glyph glyph-name="ring" unicode="&#x2da;" horiz-adv-x="468" 
d="M234 577q-55 0 -92 30.5t-37 81.5q0 50 37 80.5t92 30.5q56 0 92.5 -30.5t36.5 -80.5q0 -51 -36.5 -81.5t-92.5 -30.5zM234 632q33 0 48 15t15 42q0 26 -15 41t-48 15q-34 0 -49 -15t-15 -41q0 -27 15 -42t49 -15z" />
    <glyph glyph-name="tilde" unicode="&#x2dc;" horiz-adv-x="553" 
d="M342 602q-26 0 -45 9.5t-34.5 22.5t-31.5 22.5t-37 9.5q-20 0 -30 -10.5t-14 -25.5t-6 -29h-66q2 37 15 67.5t35.5 49t55.5 18.5q26 0 46.5 -9.5t37 -22.5t32 -22.5t32.5 -9.5q19 0 29.5 10.5t14.5 26t6 28.5h66q-3 -37 -15.5 -67.5t-35.5 -49t-55 -18.5z" />
    <glyph glyph-name="gravecomb" unicode="&#x300;" horiz-adv-x="0" 
d="M240 601l-140 161h105l106 -161h-71z" />
    <glyph glyph-name="acutecomb" unicode="&#x301;" horiz-adv-x="0" 
d="M93 601l106 161h105l-140 -161h-71z" />
    <glyph glyph-name="tildecomb" unicode="&#x303;" horiz-adv-x="0" 
d="M342 602q-26 0 -45 9.5t-34.5 22.5t-31.5 22.5t-37 9.5q-20 0 -30 -10.5t-14 -25.5t-6 -29h-66q2 37 15 67.5t35.5 49t55.5 18.5q26 0 46.5 -9.5t37 -22.5t32 -22.5t32.5 -9.5q19 0 29.5 10.5t14.5 26t6 28.5h66q-3 -37 -15.5 -67.5t-35.5 -49t-55 -18.5z" />
    <glyph glyph-name="uni0304" unicode="&#x304;" horiz-adv-x="0" 
d="M100 613v70h240v-70h-240z" />
    <glyph glyph-name="uni0308" unicode="&#x308;" horiz-adv-x="0" 
d="M204 700v-98h-104v98h104zM381 700v-98h-104v98h104z" />
    <glyph glyph-name="endash" unicode="&#x2013;" horiz-adv-x="560" 
d="M80 309h400v-77h-400v77z" />
    <glyph glyph-name="emdash" unicode="&#x2014;" horiz-adv-x="800" 
d="M60 310h680v-77h-680v77z" />
    <glyph glyph-name="quoteleft" unicode="&#x2018;" horiz-adv-x="198" 
d="M123 699l22 -22q-16 -28 -28 -55.5t-14 -53.5l50 -11v-97h-108v70q0 62 24.5 100.5t53.5 68.5z" />
    <glyph glyph-name="quoteright" unicode="&#x2019;" horiz-adv-x="198" 
d="M74 411l-21 22q16 28 28 55.5t13 53.5l-49 11v97h108v-70q0 -61 -24.5 -100t-54.5 -69z" />
    <glyph glyph-name="quotesinglbase" unicode="&#x201a;" horiz-adv-x="198" 
d="M74 -142l-21 22q16 28 28 55.5t13 53.5l-49 11v97h108v-70q0 -61 -24.5 -100t-54.5 -69z" />
    <glyph glyph-name="quotedblleft" unicode="&#x201c;" horiz-adv-x="348" 
d="M123 699l22 -22q-16 -28 -28 -55.5t-14 -53.5l50 -11v-97h-108v70q0 62 24.5 100.5t53.5 68.5zM273 699l22 -22q-16 -28 -28 -55.5t-14 -53.5l50 -11v-97h-108v70q0 62 24.5 100.5t53.5 68.5z" />
    <glyph glyph-name="quotedblright" unicode="&#x201d;" horiz-adv-x="348" 
d="M74 411l-21 22q16 28 28 55.5t13 53.5l-49 11v97h108v-70q0 -61 -24.5 -100t-54.5 -69zM224 411l-21 22q16 28 28 55.5t13 53.5l-49 11v97h108v-70q0 -61 -24.5 -100t-54.5 -69z" />
    <glyph glyph-name="quotedblbase" unicode="&#x201e;" horiz-adv-x="348" 
d="M74 -142l-21 22q16 28 28 55.5t13 53.5l-49 11v97h108v-70q0 -61 -24.5 -100t-54.5 -69zM224 -142l-21 22q16 28 28 55.5t13 53.5l-49 11v97h108v-70q0 -61 -24.5 -100t-54.5 -69z" />
    <glyph glyph-name="bullet" unicode="&#x2022;" horiz-adv-x="446" 
d="M100 385h246v-246h-246v246z" />
    <glyph glyph-name="ellipsis" unicode="&#x2026;" horiz-adv-x="608" 
d="M543 98v-98h-104v98h104zM169 98v-98h-104v98h104zM357 98v-98h-104v98h104z" />
    <glyph glyph-name="guilsinglleft" unicode="&#x2039;" horiz-adv-x="393" 
d="M60 279l228 248l55 -55l-228 -238zM60 279l55 45l228 -238l-55 -55z" />
    <glyph glyph-name="guilsinglright" unicode="&#x203a;" horiz-adv-x="393" 
d="M333 279l-55 -45l-228 238l55 55zM333 279l-228 -248l-55 55l228 238z" />
    <glyph glyph-name="fraction" unicode="&#x2044;" horiz-adv-x="134" 
d="M230 700l54 -30l-382 -690l-52 32z" />
    <glyph glyph-name="uni2074" unicode="&#x2074;" horiz-adv-x="314" 
d="M254 536h40v-60h-40v-76h-63v76h-151v60l147 167h67v-167zM191 536v90l-78 -90h78z" />
    <glyph glyph-name="Euro" unicode="&#x20ac;" horiz-adv-x="763" 
d="M389 232h-369l60 60h361zM495 342h-475l60 60h467zM213 246q15 -58 48.5 -98t79.5 -60.5t97 -20.5q47 0 87.5 17t70 50.5t43.5 82.5h74q-10 -70 -48 -121t-96.5 -78.5t-130.5 -27.5q-58 0 -108.5 17.5t-91 51t-68 81t-39.5 106.5h82zM615 489q-28 46 -74.5 70t-102.5 24
q-54 0 -102 -23t-81.5 -67t-45.5 -109h-81q9 64 36 115t68 87t93.5 55t112.5 19q74 0 133.5 -28.5t96.5 -81.5z" />
    <glyph glyph-name="trademark" unicode="&#x2122;" horiz-adv-x="851" 
d="M250 400h-80v175h-90v75h260v-75h-90v-175zM591 471l100 179h80v-250h-78l-1 131l-61 -131h-80l-61 130l-1 -130h-78v250h80zM771 262h-681v73h681v-73z" />
    <glyph glyph-name="arrowup" unicode="&#x2191;" horiz-adv-x="676" 
d="M300 -30v558v50l-155 -148l-55 55l248 228l248 -228l-55 -55l-156 149v-44v-565h-75z" />
    <glyph glyph-name="arrowdown" unicode="&#x2193;" horiz-adv-x="676" 
d="M338 -35l-248 228l55 55l156 -149v45v564h75v-564v-44l155 148l55 -55z" />
    <glyph glyph-name="minus" unicode="&#x2212;" horiz-adv-x="440" 
d="M50 307h340v-74h-340v74z" />
    <glyph glyph-name="uni2215" unicode="&#x2215;" horiz-adv-x="434" 
d="M380 700l54 -30l-382 -690l-52 32z" />
    <glyph glyph-name="Ldot" horiz-adv-x="570" 
d="M160 650v-575h360v-75h-440v650h80zM406 392v-98h-104v98h104z" />
    <glyph glyph-name="i.loclTRK" horiz-adv-x="200" 
d="M60 500h80v-500h-80v500zM152 701v-98h-104v98h104z" />
    <glyph glyph-name="ldot" horiz-adv-x="364" 
d="M75 700h80v-700h-80v700zM289 400v-98h-104v98h104z" />
    <glyph glyph-name="zero.lf" horiz-adv-x="590" 
d="M300 660q79 0 135 -44.5t85.5 -120t29.5 -170.5q0 -94 -29.5 -170t-85.5 -120.5t-135 -44.5t-135 44.5t-85.5 120.5t-29.5 170q0 95 29.5 170.5t85.5 120t135 44.5zM300 70q39 0 70 18t53.5 52t34.5 81t12 104t-12 104t-34.5 81t-53.5 52t-70 18t-70 -18t-53.5 -52
t-34.5 -81t-12 -104t12 -104t34.5 -81t53.5 -52t70 -18z" />
    <glyph glyph-name="one.lf" horiz-adv-x="322" 
d="M30 575v75h197v-650h-80v575h-117z" />
    <glyph glyph-name="two.lf" horiz-adv-x="498" 
d="M216 175l-107 -128l-13 28h324v-75h-380v75q63 76 108.5 131t77 94t50.5 66.5t29.5 47.5t14 36.5t3.5 33.5q0 30 -13 53t-36 35.5t-53 12.5q-43 0 -76 -28t-33 -73h-70q-5 50 19 89.5t66.5 63t93.5 23.5q42 0 76 -13.5t57.5 -37.5t36 -56t12.5 -69t-17 -76.5t-45 -79
t-61 -78.5t-64 -75z" />
    <glyph glyph-name="three.lf" horiz-adv-x="455" 
d="M241 340l1 5q38 -3 70 -13t56 -29.5t37 -50t13 -74.5q0 -52 -24 -94.5t-67.5 -68t-101.5 -25.5q-54 0 -98.5 25.5t-69 68t-19.5 94.5h70q0 -32 15.5 -58t42.5 -40.5t59 -14.5q52 0 82.5 31.5t30.5 85.5q0 53 -33.5 86t-91.5 33h-57v73h57q38 0 64 14t39 38.5t13 57.5
q0 45 -30 73t-76 28q-44 0 -75 -28t-31 -73h-70q-4 37 8.5 69t37.5 56t58.5 37.5t71.5 13.5q56 0 98 -23.5t65 -63t23 -89.5q0 -41 -12.5 -68.5t-35 -43.5t-53.5 -23t-67 -9z" />
    <glyph glyph-name="four.lf" horiz-adv-x="537" 
d="M400 650v-650h-80v551l19 -6l-225 -355l-17 30h239v-75h-291v75l275 430h80zM384 145v75h108v-75h-108z" />
    <glyph glyph-name="five.lf" horiz-adv-x="549" 
d="M292 420q41 0 76.5 -15t62.5 -43.5t42.5 -68t15.5 -89.5q0 -66 -29 -114t-76.5 -74t-103.5 -26q-43 0 -82 13.5t-68.5 39t-48 62t-21.5 82.5h80q4 -38 23.5 -65t50 -40.5t66.5 -13.5q25 0 48 9t41.5 26t29.5 42.5t11 58.5t-10 58.5t-28 43t-40.5 27t-46.5 9.5
q-25 0 -50 -7t-46 -25t-36 -51l-74 15l20 376h329v-75h-253l-17 -282l-7 7q10 43 31.5 69t50 38.5t59.5 12.5z" />
    <glyph glyph-name="six.lf" horiz-adv-x="500" 
d="M256 420q54 0 98.5 -26.5t71 -75t25.5 -114.5t-30.5 -114t-78 -74t-107.5 -26q-58 0 -106.5 26t-76.5 73.5t-27 113.5q1 23 6 50t18 58q2 6 13 29.5t28 59.5t37 78.5t41 87t40 84.5h86l-202 -406l-29 -26q22 45 43 82.5t43.5 64t48.5 41t58 14.5zM235 67q54 0 94.5 35.5
t41.5 102.5q1 65 -37 101.5t-93 36.5q-61 0 -98 -40.5t-38 -98.5q-1 -66 37.5 -101.5t92.5 -35.5z" />
    <glyph glyph-name="seven.lf" horiz-adv-x="411" 
d="M20 575v75h371v-75l-225 -575h-79l236 609l23 -34h-326z" />
    <glyph glyph-name="eight.lf" horiz-adv-x="474" 
d="M237 329q-51 0 -93.5 16t-67.5 50.5t-25 88.5q0 50 23 89.5t65 63t98 23.5q57 0 98.5 -23.5t64.5 -63t23 -89.5q0 -54 -25 -88.5t-67 -50.5t-94 -16zM237 379q30 0 54 14t38 37.5t14 53.5t-14 53t-38 35.5t-54 12.5q-29 0 -53 -12.5t-38.5 -35.5t-14.5 -53t14.5 -53.5
t38.5 -37.5t53 -14zM237 -10q-61 0 -106 25.5t-69.5 68t-24.5 94.5q0 59 27.5 98.5t73.5 59t99 19.5q54 0 99.5 -19.5t73 -59t27.5 -98.5q0 -52 -24.5 -94.5t-69 -68t-106.5 -25.5zM237 65q35 0 62 14.5t42.5 40.5t15.5 58q0 35 -15.5 61.5t-42.5 41.5t-62 15
q-34 0 -61.5 -15t-43 -41.5t-15.5 -61.5q0 -32 15.5 -58t43 -40.5t61.5 -14.5z" />
    <glyph glyph-name="nine.lf" horiz-adv-x="500" 
d="M232 230q-51 0 -96 26.5t-72.5 75t-26.5 114.5q1 67 30.5 114.5t78.5 73.5t107 26q59 0 107 -25.5t76 -73.5t27 -114q-1 -23 -6 -49.5t-18 -58.5q-2 -6 -12 -27t-24.5 -52t-31 -66t-32.5 -69.5t-29.5 -62.5t-21.5 -45l-8 -17h-86l202 406l29 26q-22 -45 -43 -82.5
t-43.5 -64t-48.5 -41t-58 -14.5zM253 583q-54 0 -94 -35.5t-42 -102.5q-1 -65 37 -101.5t93 -36.5q62 0 98.5 40.5t37.5 98.5q1 44 -17 74.5t-47.5 46.5t-65.5 16z" />
    <glyph glyph-name="zero.osf" horiz-adv-x="562" 
d="M282 -10q-64 0 -120 31t-90.5 89.5t-34.5 138.5t34.5 138.5t90.5 90.5t120 32t119.5 -32t89.5 -90.5t34 -138.5t-34 -138.5t-89.5 -89.5t-119.5 -31zM282 67q41 0 78 21t61 62t24 99t-23.5 99t-61 63t-78.5 22t-79 -21.5t-62 -62.5t-24 -100q0 -58 24 -99t62 -62t79 -21z
" />
    <glyph glyph-name="one.osf" horiz-adv-x="322" 
d="M25 425v75h197v-500h-80v425h-117z" />
    <glyph glyph-name="two.osf" horiz-adv-x="488" 
d="M285 151l-134 -97l-7 21h294v-75h-370v75q65 49 115.5 83t85.5 61t53.5 55t18.5 65q0 28 -11 49.5t-33.5 34t-58.5 12.5q-44 0 -76 -28t-32 -73h-70q-5 50 18.5 89.5t66 63t93.5 23.5q44 0 78 -13.5t57.5 -36.5t35.5 -53t12 -63q0 -30 -9.5 -55t-27 -48t-42.5 -45
t-57 -45z" />
    <glyph glyph-name="three.osf" horiz-adv-x="455" 
d="M241 190l1 5q38 -3 70 -13t56 -29.5t37 -50.5t13 -75q0 -51 -24 -93.5t-67.5 -68t-101.5 -25.5q-54 0 -98.5 25.5t-69 68t-19.5 93.5h70q0 -32 14 -57.5t40 -40.5t63 -15q52 0 82.5 32t30.5 85t-33.5 86t-91.5 33h-57v74h57q38 0 64 13.5t39 38.5t13 57q0 45 -26.5 73.5
t-79.5 28.5q-44 0 -75 -28.5t-31 -73.5h-70q-4 37 8.5 69t37.5 56.5t58.5 38t71.5 13.5q56 0 98 -23.5t65 -63.5t23 -90q0 -41 -12.5 -68.5t-35 -43.5t-53.5 -23t-67 -8z" />
    <glyph glyph-name="four.osf" horiz-adv-x="537" 
d="M400 505v-650h-80v551l19 -6l-225 -355l-17 30h239v-75h-291v75l275 430h80zM384 0v75h108v-75h-108z" />
    <glyph glyph-name="five.osf" horiz-adv-x="549" 
d="M292 270q44 0 80 -15t62 -43.5t40.5 -68t14.5 -89.5q0 -66 -28.5 -114t-76 -74t-104.5 -26q-43 0 -82 13.5t-68.5 39t-48 62t-21.5 82.5h80q4 -38 21.5 -65t47.5 -40.5t71 -13.5q26 0 49.5 9t41.5 26t28.5 42.5t10.5 58.5t-9.5 58.5t-26 43t-39.5 27t-50 9.5
q-25 0 -50 -7t-46 -25t-36 -51l-74 15l20 376h339v-75h-263l-17 -282l-7 7q10 43 31.5 69t50 38.5t59.5 12.5z" />
    <glyph glyph-name="six.osf" horiz-adv-x="503" 
d="M271 420q54 0 98.5 -26.5t71 -75t25.5 -114.5t-30.5 -114t-78 -74t-107.5 -26q-58 0 -106.5 26t-76.5 73.5t-27 113.5q1 23 6 50t18 58q2 6 12 27t24.5 52t31 66t32.5 69.5t29.5 62.5t21.5 45l8 17h86l-202 -406l-29 -26q22 45 43 82.5t43.5 64t48.5 41t58 14.5zM250 67
q54 0 94.5 35.5t41.5 102.5q1 65 -37 101.5t-93 36.5q-61 0 -98 -40.5t-38 -98.5q-1 -66 37.5 -101.5t92.5 -35.5z" />
    <glyph glyph-name="seven.osf" horiz-adv-x="451" 
d="M45 425v75h381v-75l-265 -575h-85l287 608l21 -33h-339z" />
    <glyph glyph-name="eight.osf" horiz-adv-x="490" 
d="M245 329q-51 0 -93.5 16t-67.5 50.5t-25 88.5q0 50 23 89.5t65 63t98 23.5q57 0 98.5 -23.5t64.5 -63t23 -89.5q0 -54 -25 -88.5t-67 -50.5t-94 -16zM245 379q33 0 56.5 14t36.5 37.5t13 53.5t-13 53t-36.5 35.5t-56.5 12.5q-32 0 -56 -12.5t-37 -35.5t-13 -53t13 -53.5
t37 -37.5t56 -14zM245 -10q-66 0 -113 25.5t-72 68t-25 94.5q0 59 28 98.5t76 59t106 19.5q59 0 106.5 -19.5t75.5 -59t28 -98.5q0 -52 -25 -94.5t-71.5 -68t-113.5 -25.5zM245 65q43 0 72 14.5t43.5 40.5t14.5 58q0 35 -14.5 61.5t-43.5 41.5t-72 15t-72 -15t-43.5 -41.5
t-14.5 -61.5q0 -32 14.5 -58t43.5 -40.5t72 -14.5z" />
    <glyph glyph-name="nine.osf" horiz-adv-x="493" 
d="M232 80q-51 0 -96 26.5t-72.5 75.5t-26.5 115t30.5 113.5t78.5 73.5t107 26q59 0 107 -26t76 -73.5t27 -113.5q-1 -23 -6 -49.5t-18 -58.5q-2 -6 -12 -27t-24.5 -52t-31 -66t-32.5 -69.5t-29.5 -62.5t-21.5 -45l-8 -17h-86l202 406l29 26q-22 -45 -43 -82.5t-43.5 -64
t-48.5 -41t-58 -14.5zM253 433q-54 0 -94 -35.5t-42 -102.5q-1 -64 37 -101t93 -37q62 0 98.5 41t37.5 99q1 44 -17 74t-47.5 46t-65.5 16z" />
    <glyph glyph-name="zero.tf" 
d="M275 660q79 0 130 -44.5t75.5 -120t24.5 -170.5q0 -94 -24.5 -170t-75.5 -120.5t-130 -44.5t-130 44.5t-75.5 120.5t-24.5 170q0 95 24.5 170.5t75.5 120t130 44.5zM275 70q52 0 85 32t49 89.5t16 133.5q0 77 -16 134t-49 89t-85 32q-39 0 -67 -18t-46.5 -52t-27.5 -81
t-9 -104t9 -104t27.5 -81t46.5 -52t67 -18z" />
    <glyph glyph-name="one.tf" 
d="M82 75h390v-75h-390v75zM92 575v75h235v-590h-80v515h-155z" />
    <glyph glyph-name="two.tf" 
d="M261 175l-107 -128l-13 28h324v-75h-380v75q63 76 108.5 131t77 94t50.5 66.5t29.5 47.5t14 36.5t3.5 33.5q0 30 -13 53t-36 35.5t-53 12.5q-43 0 -76 -28t-33 -73h-70q-5 50 19 89.5t66.5 63t93.5 23.5q42 0 76 -13.5t57.5 -37.5t36 -56t12.5 -69t-17 -76.5t-45 -79
t-61 -78.5t-64 -75z" />
    <glyph glyph-name="three.tf" 
d="M288 340l1 5q38 -3 70 -13t56 -29.5t37 -50t13 -74.5q0 -52 -24 -94.5t-67.5 -68t-101.5 -25.5q-54 0 -98.5 25.5t-69 68t-19.5 94.5h70q0 -32 15.5 -58t42.5 -40.5t59 -14.5q52 0 82.5 31.5t30.5 85.5q0 53 -33.5 86t-91.5 33h-57v73h57q38 0 64 14t39 38.5t13 57.5
q0 45 -30 73t-76 28q-44 0 -75 -28t-31 -73h-70q-4 37 8.5 69t37.5 56t58.5 37.5t71.5 13.5q56 0 98 -23.5t65 -63t23 -89.5q0 -41 -12.5 -68.5t-35 -43.5t-53.5 -23t-67 -9z" />
    <glyph glyph-name="four.tf" 
d="M400 650v-650h-80v551l19 -6l-225 -355l-17 30h239v-75h-291v75l275 430h80zM384 145v75h108v-75h-108z" />
    <glyph glyph-name="five.tf" 
d="M297 420q39 0 73.5 -15t61.5 -43.5t42 -68t15 -89.5q0 -66 -29 -114t-75.5 -74t-99.5 -26q-42 0 -79.5 13.5t-67 39t-47.5 62t-21 82.5h80q4 -38 22 -65t47.5 -40.5t65.5 -13.5q23 0 45 9t40 26t29 42.5t11 58.5t-10 58.5t-27.5 43t-38.5 27t-44 9.5q-25 0 -48.5 -7
t-43.5 -25t-35 -51l-74 15l20 376h319v-75h-243l-17 -281l-7 6q10 43 30 69t47.5 38.5t58.5 12.5z" />
    <glyph glyph-name="six.tf" 
d="M281 420q54 0 98.5 -26.5t71 -75t25.5 -114.5t-30.5 -114t-78 -74t-107.5 -26q-58 0 -106.5 26t-76.5 73.5t-27 113.5q1 23 6 50t18 58q3 7 15.5 34.5t30.5 66t37.5 79.5t36.5 77.5t28 59l11 22.5h86l-202 -406l-29 -26q18 36 35 67.5t34 56t36 42t41 27t47 9.5zM260 67
q54 0 94.5 35.5t41.5 102.5q1 65 -37 101.5t-93 36.5q-41 0 -71.5 -18.5t-47 -50t-17.5 -70.5q0 -44 17.5 -74.5t47 -46.5t65.5 -16z" />
    <glyph glyph-name="seven.tf" 
d="M90 575v75h371v-75l-225 -575h-79l236 609l23 -34h-326z" />
    <glyph glyph-name="eight.tf" 
d="M282 329q-51 0 -93.5 16t-67.5 50.5t-25 88.5q0 50 23 89.5t65 63t98 23.5q57 0 98.5 -23.5t64.5 -63t23 -89.5q0 -54 -25 -88.5t-67 -50.5t-94 -16zM282 379q33 0 56.5 14t36.5 37.5t13 53.5t-13 53t-36.5 35.5t-56.5 12.5q-32 0 -56 -12.5t-37 -35.5t-13 -53t13 -53.5
t37 -37.5t56 -14zM282 -10q-66 0 -113 25.5t-72 68t-25 94.5q0 59 28 98.5t76 59t106 19.5q59 0 106.5 -19.5t75.5 -59t28 -98.5q0 -52 -25 -94.5t-71.5 -68t-113.5 -25.5zM282 65q43 0 72 14.5t43.5 40.5t14.5 58q0 35 -14.5 61.5t-43.5 41.5t-72 15t-72 -15t-43.5 -41.5
t-14.5 -61.5q0 -32 14.5 -58t43.5 -40.5t72 -14.5z" />
    <glyph glyph-name="nine.tf" 
d="M257 230q-51 0 -96 26.5t-72.5 75t-26.5 114.5q1 67 30.5 114.5t78.5 73.5t107 26q59 0 107 -25.5t76 -73.5t27 -114q-1 -23 -6 -49.5t-18 -58.5q-3 -7 -15.5 -34.5t-30.5 -66t-37.5 -79.5t-36.5 -77.5t-28 -59l-11 -22.5h-86l202 406l29 26q-18 -36 -35 -67.5t-34 -56
t-36 -42t-40.5 -27t-47.5 -9.5zM278 583q-54 0 -94 -35.5t-42 -102.5q-1 -65 37 -101.5t93 -36.5q41 0 71.5 18.5t47.5 50.5t17 70q1 44 -17 74.5t-47.5 46.5t-65.5 16z" />
    <glyph glyph-name="zero.tosf" 
d="M276 -10q-64 0 -117.5 31t-85.5 89.5t-32 138.5t32 138.5t85.5 90.5t117.5 32t117 -32t84.5 -90.5t31.5 -138.5t-31.5 -138.5t-84.5 -89.5t-117 -31zM276 68q41 0 75.5 21t56 61.5t21.5 98.5t-21 99t-56 62.5t-76 21.5t-76.5 -21.5t-57 -62t-21.5 -99.5q0 -58 21.5 -98.5
t57 -61.5t76.5 -21z" />
    <glyph glyph-name="one.tosf" 
d="M102 75h360v-75h-360v75zM92 425v75h235v-441h-80v366h-155z" />
    <glyph glyph-name="two.tosf" 
d="M311 151l-134 -97l-7 21h294v-75h-370v75q65 49 115.5 83t85.5 61t53.5 55t18.5 65q0 28 -11 49.5t-33.5 34t-58.5 12.5q-44 0 -76 -28t-32 -73h-70q-5 50 18.5 89.5t66 63t93.5 23.5q44 0 78 -13.5t57.5 -36.5t35.5 -53t12 -63q0 -30 -9.5 -55t-27 -48t-42.5 -45
t-57 -45z" />
    <glyph glyph-name="three.tosf" 
d="M288 190l1 5q38 -3 70 -13t56 -29.5t37 -50.5t13 -75q0 -51 -24 -93.5t-67.5 -68t-101.5 -25.5q-54 0 -98.5 25.5t-69 68t-19.5 93.5h70q0 -32 14 -57.5t40 -40.5t63 -15q52 0 82.5 32t30.5 85t-33.5 86t-91.5 33h-57v74h57q38 0 64 13.5t39 38.5t13 57q0 45 -26.5 73.5
t-79.5 28.5q-44 0 -75 -28.5t-31 -73.5h-70q-4 37 8.5 69t37.5 56.5t58.5 38t71.5 13.5q56 0 98 -23.5t65 -63.5t23 -90q0 -41 -12.5 -68.5t-35 -43.5t-53.5 -23t-67 -8z" />
    <glyph glyph-name="four.tosf" 
d="M400 505v-650h-80v551l19 -6l-225 -355l-17 30h239v-75h-291v75l275 430h80zM384 0v75h108v-75h-108z" />
    <glyph glyph-name="five.tosf" 
d="M295 270q40 0 74.5 -15t60.5 -43.5t41 -68t15 -89.5q0 -66 -28 -114t-74.5 -74t-100.5 -26q-43 0 -81.5 13.5t-67.5 39t-47 62t-21 82.5h80q4 -38 22.5 -65t48.5 -40.5t66 -13.5q24 0 46 9t39.5 26t28 42.5t10.5 58.5t-9.5 58.5t-26.5 43t-38.5 27t-44.5 9.5
q-25 0 -50 -7t-46 -25t-36 -51l-74 15l20 376h326v-75h-250l-17 -282l-7 7q10 43 31.5 69t50 38.5t59.5 12.5z" />
    <glyph glyph-name="six.tosf" 
d="M293 420q54 0 98.5 -26.5t71 -75t25.5 -114.5t-30.5 -114t-78 -74t-107.5 -26q-58 0 -106.5 26t-76.5 73.5t-27 113.5q1 23 6 50t18 58q3 7 15.5 34.5t30.5 66t37.5 79.5t36.5 77.5t28 59l11 22.5h86l-202 -406l-29 -26q18 36 35 67.5t34 56t36 42t41 27t47 9.5zM272 67
q54 0 94.5 35.5t41.5 102.5q1 65 -37 101.5t-93 36.5q-41 0 -71.5 -18.5t-47 -50t-17.5 -70.5q0 -44 17.5 -74.5t47 -46.5t65.5 -16z" />
    <glyph glyph-name="seven.tosf" 
d="M53 425v75h431v-75l-225 -575h-79l239 609l23 -34h-389z" />
    <glyph glyph-name="eight.tosf" 
d="M283 329q-51 0 -93.5 16t-67.5 50.5t-25 88.5q0 50 23 89.5t65 63t98 23.5q57 0 98.5 -23.5t64.5 -63t23 -89.5q0 -54 -25 -88.5t-67 -50.5t-94 -16zM283 379q33 0 56.5 14t36.5 37.5t13 53.5t-13 53t-36.5 35.5t-56.5 12.5q-32 0 -56 -12.5t-37 -35.5t-13 -53t13 -53.5
t37 -37.5t56 -14zM283 -10q-66 0 -113 25.5t-72 68t-25 94.5q0 59 28 98.5t76 59t106 19.5q59 0 106.5 -19.5t75.5 -59t28 -98.5q0 -52 -25 -94.5t-71.5 -68t-113.5 -25.5zM283 65q43 0 72 14.5t43.5 40.5t14.5 58q0 35 -14.5 61.5t-43.5 41.5t-72 15t-72 -15t-43.5 -41.5
t-14.5 -61.5q0 -32 14.5 -58t43.5 -40.5t72 -14.5z" />
    <glyph glyph-name="nine.tosf" 
d="M257 80q-51 0 -96 26.5t-72.5 75.5t-26.5 115t30.5 113.5t78.5 73.5t107 26q59 0 107 -26t76 -73.5t27 -113.5q-1 -23 -6 -49.5t-18 -58.5q-3 -7 -15.5 -34.5t-30.5 -66t-37.5 -79.5t-36.5 -77.5t-28 -59l-11 -22.5h-86l202 406l29 26q-18 -36 -35 -67.5t-34 -56t-36 -42
t-40.5 -27t-47.5 -9.5zM278 433q-54 0 -94 -35.5t-42 -102.5q-1 -64 37 -101t93 -37q62 0 98.5 41t37.5 99q1 65 -37.5 100.5t-92.5 35.5z" />
    <glyph glyph-name="zero.dnom" horiz-adv-x="375" 
d="M188 394q49 0 82.5 -26.5t50.5 -72.5t17 -103t-17 -102.5t-50.5 -72.5t-82.5 -27t-83 27t-51 72.5t-17 102.5t17 103t51 72.5t83 26.5zM188 69q39 0 60.5 34t21.5 89q0 56 -21.5 89.5t-60.5 33.5q-40 0 -61 -33.5t-21 -89.5q0 -55 21 -89t61 -34z" />
    <glyph glyph-name="one.dnom" horiz-adv-x="295" 
d="M25 0v65h86v259h-80v66h155v-325h74v-65h-235z" />
    <glyph glyph-name="two.dnom" horiz-adv-x="313" 
d="M273 0h-239v65q25 25 48.5 50t43.5 48t35.5 44t24 39.5t8.5 34.5q0 52 -49 52q-25 0 -36.5 -14.5t-11.5 -27.5h-62q-3 30 11.5 54.5t41.5 38.5t61 14q36 0 61.5 -13.5t39 -37.5t13.5 -56q0 -36 -17 -68.5t-43 -62t-53 -57.5l-37 -38h160v-65z" />
    <glyph glyph-name="three.dnom" horiz-adv-x="313" 
d="M175 205q32 -4 54.5 -15.5t34.5 -31t12 -48.5q0 -50 -32.5 -85t-85.5 -35q-38 0 -66.5 17t-42.5 44.5t-11 58.5h60q0 -23 15 -38.5t45 -15.5q28 0 40 15.5t12 41.5t-18 42.5t-53 16.5h-23v61h23q35 0 50.5 14t15.5 39q0 20 -14.5 33t-36.5 13t-36 -13t-14 -33h-61
q-3 30 10.5 55.5t40 40.5t60.5 15q53 0 84.5 -31.5t31.5 -69.5q0 -41 -24.5 -63t-70.5 -28z" />
    <glyph glyph-name="four.dnom" horiz-adv-x="354" 
d="M201 0v76h-156v60l157 254h67v-249h40v-65h-40v-76h-68zM121 141h80v140z" />
    <glyph glyph-name="five.dnom" horiz-adv-x="370" 
d="M206 260q35 0 62 -17t42 -47t15 -70q0 -60 -36.5 -98t-92.5 -38q-38 0 -68 15.5t-47.5 44.5t-20.5 68h66q2 -27 21 -43t49 -16q29 0 46.5 18t17.5 49q0 32 -16.5 50t-44.5 18q-16 0 -29 -4.5t-22 -13.5t-15 -23l-62 14l14 223h206v-64h-146l-7 -103q11 18 27.5 27.5
t40.5 9.5z" />
    <glyph glyph-name="six.dnom" horiz-adv-x="341" 
d="M182 262q53 0 87.5 -39.5t34.5 -97.5q0 -60 -37.5 -97.5t-91.5 -37.5q-40 0 -70.5 18t-47.5 48t-17 64q0 19 4 35.5t11 35.5q4 11 14.5 34.5t23.5 51t25.5 53.5t20.5 42.5l8 16.5h76l-74 -138q7 6 15 8.5t18 2.5zM175 57q29 0 46 20t17 51t-17.5 51t-47.5 20t-49 -20
t-19 -51q0 -30 19.5 -50.5t50.5 -20.5z" />
    <glyph glyph-name="seven.dnom" horiz-adv-x="261" 
d="M20 327v63h221v-57l-130 -333h-65l126 327h-152z" />
    <glyph glyph-name="eight.dnom" horiz-adv-x="319" 
d="M225 203q19 -7 32 -20.5t20 -32t7 -40.5q0 -35 -16.5 -62.5t-44.5 -42.5t-64 -15t-64 15t-44 42.5t-16 62.5q0 22 7 40.5t20 32t31 20.5q-16 7 -27 18.5t-17 28t-6 35.5q0 48 33 79.5t83 31.5q51 0 83.5 -31.5t32.5 -79.5q0 -29 -13 -50.5t-37 -31.5zM159 330
q-22 0 -36 -13.5t-14 -34.5q0 -22 14.5 -35.5t35.5 -13.5q22 0 36.5 13.5t14.5 35.5q0 21 -14.5 34.5t-36.5 13.5zM159 53q26 0 42.5 16t16.5 41q0 26 -16.5 42t-42.5 16q-25 0 -41.5 -16t-16.5 -42q0 -25 16.5 -41t41.5 -16z" />
    <glyph glyph-name="nine.dnom" horiz-adv-x="331" 
d="M171 397q38 0 67.5 -18t46 -47.5t16.5 -64.5q0 -19 -3.5 -35.5t-11.5 -35.5q-4 -11 -14.5 -34t-23.5 -50.5t-25.5 -53t-20.5 -42l-8 -16.5h-76l74 135q-7 -5 -14.5 -7.5t-18.5 -2.5q-53 0 -87.5 39.5t-34.5 97.5q0 60 38 97.5t96 37.5zM168 188q30 0 49 20.5t19 51.5
q0 30 -19 50t-49 20q-31 0 -48 -19.5t-17 -50.5t17.5 -51.5t47.5 -20.5z" />
    <glyph glyph-name="zero.numr" horiz-adv-x="375" 
d="M188 654q49 0 82.5 -26.5t50.5 -72.5t17 -103t-17 -103t-50.5 -72.5t-82.5 -26.5t-83 26.5t-51 72.5t-17 103t17 103t51 72.5t83 26.5zM188 329q39 0 60.5 34t21.5 89q0 56 -21.5 89.5t-60.5 33.5q-40 0 -61 -33.5t-21 -89.5q0 -55 21 -89t61 -34z" />
    <glyph glyph-name="one.numr" horiz-adv-x="295" 
d="M25 260v65h86v259h-80v66h155v-325h74v-65h-235z" />
    <glyph glyph-name="two.numr" horiz-adv-x="313" 
d="M273 260h-239v65q25 26 48.5 50.5t43.5 47.5t35.5 44t24 39.5t8.5 34.5q0 52 -49 52q-25 0 -36.5 -14.5t-11.5 -27.5h-62q-3 30 11.5 54.5t41.5 38.5t61 14q36 0 61.5 -13.5t39 -37.5t13.5 -56q0 -35 -17 -68t-43 -62.5t-53 -57.5l-37 -38h160v-65z" />
    <glyph glyph-name="three.numr" horiz-adv-x="313" 
d="M175 465q32 -4 54.5 -15.5t34.5 -31t12 -48.5q0 -50 -32.5 -85t-85.5 -35q-38 0 -66.5 17t-42.5 44.5t-11 58.5h60q0 -23 15 -38.5t45 -15.5q28 0 40 15.5t12 41.5t-18 42.5t-53 16.5h-23v61h23q35 0 50.5 14t15.5 39q0 20 -14.5 33t-36.5 13t-36 -13t-14 -33h-61
q-3 30 10.5 55.5t40 40.5t60.5 15q53 0 84.5 -31.5t31.5 -69.5q0 -41 -24.5 -63t-70.5 -28z" />
    <glyph glyph-name="four.numr" horiz-adv-x="354" 
d="M201 260v76h-156v60l157 254h67v-249h40v-65h-40v-76h-68zM121 401h80v140z" />
    <glyph glyph-name="five.numr" horiz-adv-x="370" 
d="M206 520q35 0 62 -17t42 -47t15 -70q0 -60 -36.5 -98t-92.5 -38q-38 0 -68 16t-47.5 44.5t-20.5 67.5h66q2 -27 21 -43t49 -16q29 0 46.5 18t17.5 49q0 32 -16.5 50t-44.5 18q-16 0 -29 -4.5t-22 -13.5t-15 -23l-62 14l14 223h206v-64h-146l-7 -103q11 18 27.5 27.5
t40.5 9.5z" />
    <glyph glyph-name="six.numr" horiz-adv-x="341" 
d="M182 522q53 0 87.5 -39.5t34.5 -97.5q0 -60 -37.5 -97.5t-91.5 -37.5q-40 0 -70.5 18t-47.5 48t-17 64q0 19 4 35.5t11 35.5q4 11 14.5 34.5t23.5 51t25.5 53.5t20.5 42.5l8 16.5h76l-74 -138q7 6 15 8.5t18 2.5zM175 317q29 0 46 20t17 51t-17.5 51t-47.5 20t-49 -20
t-19 -51q0 -30 19.5 -50.5t50.5 -20.5z" />
    <glyph glyph-name="seven.numr" horiz-adv-x="261" 
d="M20 587v63h221v-57l-130 -333h-65l126 327h-152z" />
    <glyph glyph-name="eight.numr" horiz-adv-x="319" 
d="M225 463q19 -7 32 -20.5t20 -32t7 -40.5q0 -35 -16.5 -62.5t-44.5 -42.5t-64 -15t-64 15t-44 42.5t-16 62.5q0 22 7 40.5t20 32t31 20.5q-16 7 -27 18.5t-17 28t-6 35.5q0 48 33 79.5t83 31.5q51 0 83.5 -31.5t32.5 -79.5q0 -29 -13 -50.5t-37 -31.5zM159 590
q-22 0 -36 -13.5t-14 -34.5q0 -22 14.5 -35.5t35.5 -13.5q22 0 36.5 13.5t14.5 35.5q0 21 -14.5 34.5t-36.5 13.5zM159 313q26 0 42.5 16t16.5 41q0 26 -16.5 42t-42.5 16q-25 0 -41.5 -16t-16.5 -42q0 -25 16.5 -41t41.5 -16z" />
    <glyph glyph-name="nine.numr" horiz-adv-x="331" 
d="M171 657q38 0 67.5 -18t46 -47.5t16.5 -64.5q0 -19 -3.5 -35.5t-11.5 -35.5q-4 -11 -14.5 -34t-23.5 -50.5t-25.5 -53t-20.5 -42l-8 -16.5h-76l74 135q-7 -5 -14.5 -7.5t-18.5 -2.5q-53 0 -87.5 39.5t-34.5 97.5q0 60 38 97.5t96 37.5zM168 448q30 0 49 20.5t19 51.5
q0 30 -19 50t-49 20q-31 0 -48 -19.5t-17 -50.5t17.5 -51.5t47.5 -20.5z" />
    <glyph glyph-name="uni0307" horiz-adv-x="0" 
d="M204 701v-98h-104v98h104z" />
    <glyph glyph-name="uni0302" horiz-adv-x="0" 
d="M311 762l135 -161h-95l-95 140h40l-96 -140h-96l136 161h71z" />
    <glyph glyph-name="uni0306" horiz-adv-x="0" 
d="M370 730q0 -45 -14.5 -79.5t-44.5 -54.5t-76 -20t-76 20t-44.5 54.5t-14.5 79.5h70q0 -44 16.5 -64t48.5 -20t48.5 20t16.5 64h70z" />
    <glyph glyph-name="uni030A" horiz-adv-x="0" 
d="M234 577q-55 0 -92 30.5t-37 81.5q0 50 37 80.5t92 30.5q56 0 92.5 -30.5t36.5 -80.5q0 -51 -36.5 -81.5t-92.5 -30.5zM234 632q33 0 48 15t15 42q0 26 -15 41t-48 15q-34 0 -49 -15t-15 -41q0 -27 15 -42t49 -15z" />
    <glyph glyph-name="uni0327" horiz-adv-x="0" 
d="M286 16v-101l-20 47q14 -6 25 -14.5t19.5 -20t13 -26.5t4.5 -34q0 -36 -27 -66.5t-84 -30.5q-36 0 -62 16t-38 41.5t-7 53.5h58q1 -7 5 -18.5t15.5 -21t33.5 -9.5q25 0 33.5 14.5t8.5 27.5q0 11 -4.5 23.5t-17 25.5t-37.5 23v70h81z" />
    <glyph glyph-name="uni0335" horiz-adv-x="0" 
d="M100 429h300v-70h-300v70z" />
    <glyph glyph-name="uni0338" horiz-adv-x="0" 
d="M480 700l54 -30l-382 -690l-52 32z" />
    <glyph glyph-name="uni0302.ss03" horiz-adv-x="0" 
d="M204 701v-98h-104v98h104z" />
    </font>
</defs>
</svg>
